<?xml version="1.0" standalone="no"?>
<!DOCTYPE svg PUBLIC "-//W3C//DTD SVG 1.1//EN" "http://www.w3.org/Graphics/SVG/1.1/DTD/svg11.dtd" >
<svg xmlns="http://www.w3.org/2000/svg">
<metadata>Generated by IcoMoon</metadata>
<defs>
<font id="icons" horiz-adv-x="1024">
<font-face units-per-em="1024" ascent="896" descent="-128" />
<missing-glyph horiz-adv-x="1024" />
<glyph unicode="&#x20;" horiz-adv-x="0" d="" />
<glyph unicode="&#xe900;" glyph-name="add" d="M512 725.333c23.564 0 42.667-19.103 42.667-42.667v0-256h256c23.564 0 42.667-19.103 42.667-42.667s-19.103-42.667-42.667-42.667v0h-256v-256c0-23.564-19.103-42.667-42.667-42.667s-42.667 19.103-42.667 42.667v0 256h-256c-23.564 0-42.667 19.103-42.667 42.667s19.103 42.667 42.667 42.667v0h256v256c0 23.564 19.103 42.667 42.667 42.667v0z" />
<glyph unicode="&#xe901;" glyph-name="archive" d="M85.333 682.667c0 47.128 38.205 85.333 85.333 85.333v0h682.667c47.128 0 85.333-38.205 85.333-85.333v0-85.333c0-0.003 0-0.007 0-0.010 0-31.713-17.299-59.385-42.975-74.095l-0.417-0.22c0.469-3.584 0.725-7.253 0.725-11.008v-426.667c0-47.128-38.205-85.333-85.333-85.333v0h-597.333c-47.128 0-85.333 38.205-85.333 85.333v0 426.667c0 3.712 0.256 7.424 0.725 11.008-26.093 14.93-43.392 42.602-43.392 74.315 0 0.004 0 0.007 0 0.011v-0.001 85.333zM853.333 597.333v85.333h-682.667v-85.333h682.667zM213.333 512v-426.667h597.333v426.667h-597.333zM341.333 384c0 23.564 19.103 42.667 42.667 42.667v0h256c23.564 0 42.667-19.103 42.667-42.667s-19.103-42.667-42.667-42.667v0h-256c-23.564 0-42.667 19.103-42.667 42.667v0z" />
<glyph unicode="&#xe902;" glyph-name="arrow-down" d="M512 725.333c23.564 0 42.667-19.103 42.667-42.667v0-494.336l183.168 183.168c7.665 7.41 18.12 11.977 29.641 11.977 23.564 0 42.667-19.103 42.667-42.667 0-11.521-4.567-21.976-11.989-29.653l-255.988-255.988c-7.721-7.718-18.386-12.492-30.165-12.492s-22.445 4.774-30.165 12.492l-256 256c-8.036 7.769-13.026 18.647-13.026 30.69 0 23.564 19.103 42.667 42.667 42.667 12.043 0 22.92-4.989 30.678-13.014l183.18-183.18v494.336c0 23.564 19.103 42.667 42.667 42.667v0z" />
<glyph unicode="&#xe903;" glyph-name="arrow-left" d="M499.499 670.165c7.718-7.721 12.492-18.386 12.492-30.165s-4.774-22.445-12.492-30.165l-183.168-183.168h494.336c23.564 0 42.667-19.103 42.667-42.667s-19.103-42.667-42.667-42.667v0h-494.336l183.168-183.168c7.41-7.665 11.977-18.12 11.977-29.641 0-23.564-19.103-42.667-42.667-42.667-11.521 0-21.976 4.567-29.653 11.989l-255.988 255.988c-7.718 7.721-12.492 18.386-12.492 30.165s4.774 22.445 12.492 30.165l256 256c7.721 7.718 18.386 12.492 30.165 12.492s22.445-4.774 30.165-12.492v0z" />
<glyph unicode="&#xe904;" glyph-name="arrow-left-down" d="M755.499 627.499c7.718-7.721 12.492-18.386 12.492-30.165s-4.774-22.445-12.492-30.165l-353.835-353.835h238.336c23.564 0 42.667-19.103 42.667-42.667s-19.103-42.667-42.667-42.667v0h-341.333c-23.564 0-42.667 19.103-42.667 42.667v0 341.333c0 23.564 19.103 42.667 42.667 42.667s42.667-19.103 42.667-42.667v0-238.336l353.835 353.835c7.721 7.718 18.386 12.492 30.165 12.492s22.445-4.774 30.165-12.492v0z" />
<glyph unicode="&#xe905;" glyph-name="arrow-left-up" d="M341.333 494.336v-238.336c0-23.564-19.103-42.667-42.667-42.667s-42.667 19.103-42.667 42.667v0 341.333c0 23.564 19.103 42.667 42.667 42.667v0h341.333c23.564 0 42.667-19.103 42.667-42.667s-19.103-42.667-42.667-42.667v0h-238.336l353.835-353.835c7.41-7.665 11.977-18.12 11.977-29.641 0-23.564-19.103-42.667-42.667-42.667-11.521 0-21.976 4.567-29.653 11.989l-353.823 353.823z" />
<glyph unicode="&#xe906;" glyph-name="arrow-right" d="M524.501 670.165c7.721 7.718 18.386 12.492 30.165 12.492s22.445-4.774 30.165-12.492l256-256c7.718-7.721 12.492-18.386 12.492-30.165s-4.774-22.445-12.492-30.165l-256-256c-7.665-7.41-18.12-11.977-29.641-11.977-23.564 0-42.667 19.103-42.667 42.667 0 11.521 4.567 21.976 11.989 29.653l183.156 183.156h-494.336c-23.564 0-42.667 19.103-42.667 42.667s19.103 42.667 42.667 42.667v0h494.336l-183.168 183.168c-7.718 7.721-12.492 18.386-12.492 30.165s4.774 22.445 12.492 30.165v0z" />
<glyph unicode="&#xe907;" glyph-name="arrow-right-down" d="M268.501 627.499c7.721 7.718 18.386 12.492 30.165 12.492s22.445-4.774 30.165-12.492l353.835-353.835v238.336c0 23.564 19.103 42.667 42.667 42.667s42.667-19.103 42.667-42.667v0-341.333c0-23.564-19.103-42.667-42.667-42.667v0h-341.333c-23.564 0-42.667 19.103-42.667 42.667s19.103 42.667 42.667 42.667v0h238.336l-353.835 353.835c-7.718 7.721-12.492 18.386-12.492 30.165s4.774 22.445 12.492 30.165v0z" />
<glyph unicode="&#xe908;" glyph-name="arrow-right-up" d="M341.333 597.333c0 23.564 19.103 42.667 42.667 42.667v0h341.333c23.564 0 42.667-19.103 42.667-42.667v0-341.333c0-23.564-19.103-42.667-42.667-42.667s-42.667 19.103-42.667 42.667v0 238.336l-353.835-353.835c-7.665-7.41-18.12-11.977-29.641-11.977-23.564 0-42.667 19.103-42.667 42.667 0 11.521 4.567 21.976 11.989 29.653l353.823 353.823h-238.336c-23.564 0-42.667 19.103-42.667 42.667v0z" />
<glyph unicode="&#xe909;" glyph-name="arrow-up" d="M512 725.333c11.781-0.003 22.446-4.78 30.165-12.501l256-256c7.41-7.665 11.977-18.12 11.977-29.641 0-23.564-19.103-42.667-42.667-42.667-11.521 0-21.976 4.567-29.653 11.989l-183.156 183.156v-494.336c0-23.564-19.103-42.667-42.667-42.667s-42.667 19.103-42.667 42.667v0 494.336l-183.168-183.168c-7.665-7.41-18.12-11.977-29.641-11.977-23.564 0-42.667 19.103-42.667 42.667 0 11.521 4.567 21.976 11.989 29.653l255.988 255.988c7.719 7.722 18.384 12.499 30.165 12.501h0.001z" />
<glyph unicode="&#xe90a;" glyph-name="attachment" d="M830.421 658.091c-29.355 32-82.304 33.963-117.589-1.323l-345.6-345.6c-8.96-8.96-8.96-20.309 0-29.269s20.309-8.96 29.269 0l285.867 285.867c7.665 7.41 18.12 11.977 29.641 11.977 23.564 0 42.667-19.103 42.667-42.667 0-11.521-4.567-21.976-11.989-29.653l-285.855-285.855c-19.015-19.551-45.574-31.681-74.965-31.681s-55.95 12.13-74.942 31.657l-0.023 0.024c-19.551 19.015-31.681 45.574-31.681 74.965s12.13 55.95 31.657 74.942l0.024 0.023 345.6 345.6c66.859 66.901 175.573 69.077 240.213-0.64 66.219-66.944 68.139-175.104-1.28-239.488l-404.736-404.736c-93.44-93.44-239.957-93.44-333.397 0s-93.44 239.957 0 333.397l345.6 345.6c7.665 7.41 18.12 11.977 29.641 11.977 23.564 0 42.667-19.103 42.667-42.667 0-11.521-4.567-21.976-11.989-29.653l-345.588-345.588c-60.16-60.16-60.16-152.576 0-212.736s152.576-60.16 212.736 0l406.656 406.613c32 29.312 33.963 82.304-1.323 117.589-0.429 0.425-0.846 0.856-1.255 1.295l-0.025 0.027z" />
<glyph unicode="&#xe90b;" glyph-name="backspace" d="M755.499 542.165c7.718-7.721 12.492-18.386 12.492-30.165s-4.774-22.445-12.492-30.165l-97.835-97.835 97.835-97.835c7.41-7.665 11.977-18.12 11.977-29.641 0-23.564-19.103-42.667-42.667-42.667-11.521 0-21.976 4.567-29.653 11.989l-97.823 97.823-97.835-97.835c-7.665-7.41-18.12-11.977-29.641-11.977-23.564 0-42.667 19.103-42.667 42.667 0 11.521 4.567 21.976 11.989 29.653l97.823 97.823-97.835 97.835c-8.036 7.769-13.026 18.647-13.026 30.69 0 23.564 19.103 42.667 42.667 42.667 12.043 0 22.92-4.989 30.678-13.014l97.847-97.847 97.835 97.835c7.721 7.718 18.386 12.492 30.165 12.492s22.445-4.774 30.165-12.492v0zM938.667 682.667c0 23.564-19.103 42.667-42.667 42.667v0h-492.373c-0.011 0-0.023 0-0.036 0-25.859 0-49.032-11.502-64.681-29.67l-0.094-0.111-219.392-256c-12.777-14.831-20.559-34.283-20.559-55.552s7.781-40.721 20.652-55.663l-0.094 0.111 219.392-256c15.743-18.279 38.915-29.781 64.775-29.781 0.013 0 0.025 0 0.038 0h492.371c23.564 0 42.667 19.103 42.667 42.667v0 597.333zM853.333 128h-449.707l-219.435 256 219.435 256h449.707v-512z" />
<glyph unicode="&#xe90c;" glyph-name="ban" d="M242.347 593.323c-44.766-57.188-71.785-130.143-71.785-209.409 0-188.513 152.82-341.333 341.333-341.333 79.255 0 152.202 27.012 210.135 72.332l-0.75-0.565-478.933 478.976zM302.677 653.653l478.976-478.976c44.805 57.203 71.85 130.189 71.85 209.493 0 188.513-152.82 341.333-341.333 341.333-79.303 0-152.29-27.045-210.24-72.414l0.748 0.564zM85.333 384c0 235.648 191.019 426.667 426.667 426.667s426.667-191.019 426.667-426.667-191.019-426.667-426.667-426.667-426.667 191.019-426.667 426.667z" />
<glyph unicode="&#xe90d;" glyph-name="bar-chart" d="M128 682.667c0 47.128 38.205 85.333 85.333 85.333v0h597.333c47.128 0 85.333-38.205 85.333-85.333v0-597.333c0-47.128-38.205-85.333-85.333-85.333v0h-597.333c-47.128 0-85.333 38.205-85.333 85.333v0 597.333zM810.667 682.667h-597.333v-597.333h597.333v597.333zM512 597.333c23.564 0 42.667-19.103 42.667-42.667v0-341.333c0-23.564-19.103-42.667-42.667-42.667s-42.667 19.103-42.667 42.667v0 341.333c0 23.564 19.103 42.667 42.667 42.667v0zM682.667 512c23.564 0 42.667-19.103 42.667-42.667v0-256c0-23.564-19.103-42.667-42.667-42.667s-42.667 19.103-42.667 42.667v0 256c0 23.564 19.103 42.667 42.667 42.667v0zM341.333 426.667c23.564 0 42.667-19.103 42.667-42.667v0-170.667c0-23.564-19.103-42.667-42.667-42.667s-42.667 19.103-42.667 42.667v0 170.667c0 23.564 19.103 42.667 42.667 42.667v0z" />
<glyph unicode="&#xe90e;" glyph-name="bar-chart-alt" d="M512 725.333c23.564 0 42.667-19.103 42.667-42.667v0-597.333c0-23.564-19.103-42.667-42.667-42.667s-42.667 19.103-42.667 42.667v0 597.333c0 23.564 19.103 42.667 42.667 42.667v0zM725.333 554.667c23.564 0 42.667-19.103 42.667-42.667v0-426.667c0-23.564-19.103-42.667-42.667-42.667s-42.667 19.103-42.667 42.667v0 426.667c0 23.564 19.103 42.667 42.667 42.667v0zM298.667 384c23.564 0 42.667-19.103 42.667-42.667v0-256c0-23.564-19.103-42.667-42.667-42.667s-42.667 19.103-42.667 42.667v0 256c0 23.564 19.103 42.667 42.667 42.667v0z" />
<glyph unicode="&#xe90f;" glyph-name="board" d="M85.333 682.667c0 47.128 38.205 85.333 85.333 85.333v0h682.667c47.128 0 85.333-38.205 85.333-85.333v0-597.333c0-47.128-38.205-85.333-85.333-85.333v0h-682.667c-47.128 0-85.333 38.205-85.333 85.333v0 597.333zM341.333 682.667h-170.667v-597.333h170.667v597.333zM426.667 682.667v-597.333h170.667v597.333h-170.667zM682.667 682.667v-597.333h170.667v597.333h-170.667z" />
<glyph unicode="&#xe910;" glyph-name="bold" d="M298.667 725.333c-23.564 0-42.667-19.103-42.667-42.667v0-597.333c0-23.564 19.103-42.667 42.667-42.667v0h277.333c0.054 0 0.117 0 0.18 0 106.039 0 192 85.961 192 192 0 82.448-51.967 152.758-124.934 179.961l-1.326 0.433c25.408 32.254 40.753 73.471 40.753 118.272 0 106.039-85.961 192-192 192-0.002 0-0.004 0-0.006 0h-192zM490.667 426.667h-149.333v213.333h149.333c58.91 0 106.667-47.756 106.667-106.667s-47.756-106.667-106.667-106.667v0zM341.333 341.333h234.667c58.91 0 106.667-47.756 106.667-106.667s-47.756-106.667-106.667-106.667v0h-234.667v213.333z" />
<glyph unicode="&#xe911;" glyph-name="book" d="M170.667 612.992c5.973 2.389 13.141 5.035 21.461 7.723 37.467 12.237 80.584 19.293 125.349 19.293 0.887 0 1.773-0.003 2.659-0.008l-0.136 0.001c0.75 0.005 1.636 0.008 2.523 0.008 44.765 0 87.882-7.056 128.299-20.117l-2.95 0.824c8.32-2.688 15.488-5.333 21.461-7.723v-464.213c-43.967 13.89-94.53 21.894-146.962 21.894-0.834 0-1.667-0.002-2.5-0.006h0.129c-62.293 0-113.024-10.581-149.333-21.888v464.213zM512 687.573c-9.715 4.474-22.261 9.348-35.097 13.582l-2.791 0.797c-45.269 14.834-97.368 23.388-151.465 23.388-0.931 0-1.861-0.003-2.791-0.008l0.144 0.001c-65.109 0-117.547-11.563-154.112-23.381-17.205-5.533-31.342-11.157-45.033-17.576l2.323 0.979c-6.626-3.050-11.622-5.614-16.517-8.336l1.285 0.656-1.067-0.597-0.384-0.213-0.128-0.085h-0.043c-0.085-0.085-10.539-6.272-0.085-0.085-12.601-7.568-20.904-21.161-20.907-36.693v0-554.667c0.004-23.561 19.105-42.659 42.667-42.659 8.029 0 15.539 2.217 21.953 6.073l-0.193-0.107-0.213-0.128h0.043l0.085 0.043 0.043 0.043 1.579 0.853c1.579 0.853 4.181 2.133 7.765 3.84 7.253 3.328 18.347 8.021 33.067 12.8 37.429 12.21 80.501 19.251 125.217 19.251 0.934 0 1.867-0.003 2.799-0.009l-0.143 0.001c0.789 0.005 1.722 0.008 2.655 0.008 44.716 0 87.787-7.041 128.166-20.074l-2.95 0.823c13.326-4.269 24.273-8.607 34.876-13.559l-1.809 0.759c4.207-1.939 7.328-3.534 10.391-5.221l-0.876 0.443zM490.453 48.512h-0.043l-0.085 0.043-0.043 0.043c13.397-7.893 30.037-7.893 43.435 0l1.579 0.853c1.579 0.853 4.181 2.133 7.765 3.84 8.794 4.193 19.74 8.531 30.985 12.211l2.082 0.589c37.429 12.21 80.501 19.251 125.217 19.251 0.934 0 1.867-0.003 2.799-0.009l-0.143 0.001c0.789 0.005 1.722 0.008 2.655 0.008 44.716 0 87.787-7.041 128.166-20.074l-2.95 0.823c13.326-4.269 24.273-8.607 34.876-13.559l-1.809 0.759c4.148-1.914 7.213-3.481 10.222-5.136l-0.878 0.443c6.211-3.733 13.706-5.941 21.717-5.941 23.564 0 42.667 19.103 42.667 42.667 0 0.004 0 0.007 0 0.011v-0.001 554.667c-0.003 15.533-8.305 29.126-20.714 36.586l-0.193 0.107-0.085 0.043h-0.043l-0.128 0.128-0.427 0.213-1.024 0.597c-3.615 2.070-8.611 4.633-13.701 7.031l-1.531 0.649c-11.353 5.436-25.475 11.060-39.984 15.833l-2.683 0.764c-45.269 14.834-97.368 23.389-151.466 23.389-0.945 0-1.89-0.003-2.834-0.008l0.145 0.001c-65.067 0-117.547-11.563-154.112-23.381-15.589-5.006-28.135-9.88-40.347-15.366l2.459 0.987zM853.333 612.992v-464.213c-43.967 13.89-94.53 21.894-146.962 21.894-0.834 0-1.667-0.002-2.5-0.006h0.129c-62.293 0-113.024-10.581-149.333-21.888v464.213c5.973 2.389 13.141 5.035 21.461 7.723 37.467 12.237 80.584 19.293 125.349 19.293 0.887 0 1.773-0.003 2.659-0.008l-0.136 0.001c0.75 0.005 1.636 0.008 2.523 0.008 44.765 0 87.882-7.056 128.299-20.117l-2.95 0.824c8.32-2.688 15.488-5.333 21.461-7.723zM874.24 603.264l0.213-0.085h-0.043l-0.128 0.085zM874.24 48.597l0.171-0.085-0.085 0.085z" />
<glyph unicode="&#xe912;" glyph-name="bookmark" d="M170.667 725.333c0 47.128 38.205 85.333 85.333 85.333v0h512c47.128 0 85.333-38.205 85.333-85.333v0-725.333c0-0.001 0-0.003 0-0.004 0-23.564-19.103-42.667-42.667-42.667-9.3 0-17.905 2.976-24.916 8.027l0.126-0.087-273.877 195.627-273.877-195.627c-6.884-4.965-15.489-7.94-24.789-7.94-23.564 0-42.667 19.103-42.667 42.667 0 0.001 0 0.003 0 0.004v0 725.333zM768 725.333h-512v-642.432l231.211 165.12c6.884 4.965 15.489 7.94 24.789 7.94s17.905-2.976 24.916-8.027l-0.126 0.087 231.211-165.077v642.389z" />
<glyph unicode="&#xe913;" glyph-name="calendar" d="M384 810.667c23.564 0 42.667-19.103 42.667-42.667v0-42.667h170.667v42.667c0 23.564 19.103 42.667 42.667 42.667s42.667-19.103 42.667-42.667v0-42.667h128c47.128 0 85.333-38.205 85.333-85.333v0-554.667c0-47.128-38.205-85.333-85.333-85.333v0h-597.333c-47.128 0-85.333 38.205-85.333 85.333v0 554.667c0 47.128 38.205 85.333 85.333 85.333v0h128v42.667c0 23.564 19.103 42.667 42.667 42.667v0zM341.333 640h-128v-128h597.333v128h-128v-42.667c0-23.564-19.103-42.667-42.667-42.667s-42.667 19.103-42.667 42.667v0 42.667h-170.667v-42.667c0-23.564-19.103-42.667-42.667-42.667s-42.667 19.103-42.667 42.667v0 42.667zM810.667 426.667h-597.333v-341.333h597.333v341.333z" />
<glyph unicode="&#xe914;" glyph-name="call" d="M163.541 725.333h191.573l61.739-154.368-99.2-66.133c-11.514-7.762-18.987-20.754-18.987-35.492 0-0.002 0-0.005 0-0.007v0c0.128-4.011 0-0.043 0-0.043v-0.896c0.028-2.070 0.121-4.060 0.276-6.033l-0.020 0.316c0.256-3.499 0.683-8.235 1.493-14.080 1.664-11.52 4.864-27.392 11.093-46.080 12.544-37.547 37.12-86.144 84.992-134.016s96.469-72.448 133.973-84.992c18.731-6.229 34.56-9.387 46.165-11.093 5.696-0.845 12.517-1.458 19.434-1.698l0.321-0.009 0.555-0.043h0.341s4.779 0.256 0.043 0c16.603 0.009 30.988 9.501 38.032 23.352l0.112 0.243 28.587 57.173 189.269-31.573v-184.32c-90.069-13.013-333.355-25.856-524.501 165.291s-178.347 434.475-165.291 524.501zM387.115 448.597l77.099 51.371c23.034 15.523 37.982 41.511 37.982 70.99 0 11.422-2.244 22.321-6.316 32.278l0.206-0.57-61.739 154.368c-12.932 31.699-43.518 53.632-79.226 53.632-0.002 0-0.004 0-0.006 0h-193.792c-38.784 0-75.264-26.923-81.621-68.992-14.507-95.659-34.176-378.197 188.8-601.173s505.515-203.264 601.173-188.8c42.069 6.4 68.992 42.837 68.992 81.621v186.539c0 0.003 0 0.007 0 0.010 0 42.17-30.589 77.196-70.79 84.099l-0.506 0.072-189.269 31.531c-4.224 0.741-9.087 1.165-14.050 1.165-33.213 0-61.994-18.974-76.095-46.675l-0.224-0.484-14.763-29.568c-6.645 1.627-11.82 3.164-16.902 4.899l1.414-0.419c-26.453 8.789-63.189 26.88-100.651 64.341s-55.552 74.197-64.341 100.693c-1.731 4.864-3.566 11.246-5.076 17.753l-0.258 1.319z" />
<glyph unicode="&#xe915;" glyph-name="camera" d="M353.835 712.832c7.719 7.722 18.384 12.499 30.165 12.501h256.001c11.781-0.003 22.446-4.78 30.165-12.501l72.832-72.832h110.336c47.128 0 85.333-38.205 85.333-85.333v0-426.667c0-47.128-38.205-85.333-85.333-85.333v0h-682.667c-47.128 0-85.333 38.205-85.333 85.333v0 426.667c0 47.128 38.205 85.333 85.333 85.333v0h110.336l72.832 72.832zM401.664 640l-72.832-72.832c-7.719-7.722-18.384-12.499-30.165-12.501h-128.001v-426.667h682.667v426.667h-128c-11.781 0.003-22.446 4.78-30.165 12.501l-72.832 72.832h-220.672zM512 448c-47.128 0-85.333-38.205-85.333-85.333s38.205-85.333 85.333-85.333v0c47.128 0 85.333 38.205 85.333 85.333s-38.205 85.333-85.333 85.333v0zM341.333 362.667c0 94.257 76.41 170.667 170.667 170.667s170.667-76.41 170.667-170.667v0c0-94.257-76.41-170.667-170.667-170.667s-170.667 76.41-170.667 170.667v0z" />
<glyph unicode="&#xe916;" glyph-name="caret-down" d="M725.333 469.333l-213.333-256-213.333 256h426.667z" />
<glyph unicode="&#xe917;" glyph-name="caret-left" d="M597.333 170.667l-256 213.333 256 213.333v-426.667z" />
<glyph unicode="&#xe918;" glyph-name="caret-right" d="M426.667 597.333l256-213.333-256-213.333v426.667z" />
<glyph unicode="&#xe919;" glyph-name="caret-up" d="M298.667 298.667l213.333 256 213.333-256h-426.667z" />
<glyph unicode="&#xe91a;" glyph-name="check" d="M881.664 671.872c8.793-7.85 14.303-19.219 14.303-31.874 0-10.892-4.082-20.832-10.799-28.371l0.037 0.043-455.083-512c-7.851-8.806-19.228-14.325-31.893-14.325s-24.042 5.519-31.856 14.283l-0.037 0.042-227.541 256c-6.133 7.337-9.857 16.871-9.857 27.275 0 23.564 19.103 42.667 42.667 42.667 12.167 0 23.145-5.093 30.917-13.263l0.017-0.018 195.669-220.117 423.253 476.16c7.849 8.779 19.209 14.279 31.853 14.279 10.902 0 20.85-4.089 28.392-10.817l-0.042 0.037z" />
<glyph unicode="&#xe91b;" glyph-name="chevron-double-down" d="M225.835 627.499c7.721 7.718 18.386 12.492 30.165 12.492s22.445-4.774 30.165-12.492l225.835-225.835 225.835 225.835c7.769 8.036 18.647 13.026 30.69 13.026 23.564 0 42.667-19.103 42.667-42.667 0-12.043-4.989-22.92-13.014-30.678l-256.012-256.012c-7.721-7.718-18.386-12.492-30.165-12.492s-22.445 4.774-30.165 12.492l-256 256c-7.718 7.721-12.492 18.386-12.492 30.165s4.774 22.445 12.492 30.165v0zM225.835 371.499c7.721 7.718 18.386 12.492 30.165 12.492s22.445-4.774 30.165-12.492l225.835-225.835 225.835 225.835c7.665 7.41 18.12 11.977 29.641 11.977 23.564 0 42.667-19.103 42.667-42.667 0-11.521-4.567-21.976-11.989-29.653l-255.988-255.988c-7.721-7.718-18.386-12.492-30.165-12.492s-22.445 4.774-30.165 12.492l-256 256c-7.718 7.721-12.492 18.386-12.492 30.165s4.774 22.445 12.492 30.165v0z" />
<glyph unicode="&#xe91c;" glyph-name="chevron-double-left" d="M755.499 670.165c7.718-7.721 12.492-18.386 12.492-30.165s-4.774-22.445-12.492-30.165l-225.835-225.835 225.835-225.835c7.41-7.665 11.977-18.12 11.977-29.641 0-23.564-19.103-42.667-42.667-42.667-11.521 0-21.976 4.567-29.653 11.989l-255.988 255.988c-7.718 7.721-12.492 18.386-12.492 30.165s4.774 22.445 12.492 30.165l256 256c7.721 7.718 18.386 12.492 30.165 12.492s22.445-4.774 30.165-12.492v0zM499.499 670.165c7.718-7.721 12.492-18.386 12.492-30.165s-4.774-22.445-12.492-30.165l-225.835-225.835 225.835-225.835c7.41-7.665 11.977-18.12 11.977-29.641 0-23.564-19.103-42.667-42.667-42.667-11.521 0-21.976 4.567-29.653 11.989l-255.988 255.988c-7.718 7.721-12.492 18.386-12.492 30.165s4.774 22.445 12.492 30.165l256 256c7.721 7.718 18.386 12.492 30.165 12.492s22.445-4.774 30.165-12.492v0z" />
<glyph unicode="&#xe91d;" glyph-name="chevron-double-right" d="M524.501 670.165c7.721 7.718 18.386 12.492 30.165 12.492s22.445-4.774 30.165-12.492l256-256c7.718-7.721 12.492-18.386 12.492-30.165s-4.774-22.445-12.492-30.165l-256-256c-7.665-7.41-18.12-11.977-29.641-11.977-23.564 0-42.667 19.103-42.667 42.667 0 11.521 4.567 21.976 11.989 29.653l225.823 225.823-225.835 225.835c-7.718 7.721-12.492 18.386-12.492 30.165s4.774 22.445 12.492 30.165v0zM268.501 670.165c7.721 7.718 18.386 12.492 30.165 12.492s22.445-4.774 30.165-12.492l256-256c7.718-7.721 12.492-18.386 12.492-30.165s-4.774-22.445-12.492-30.165l-256-256c-7.665-7.41-18.12-11.977-29.641-11.977-23.564 0-42.667 19.103-42.667 42.667 0 11.521 4.567 21.976 11.989 29.653l225.823 225.823-225.835 225.835c-7.718 7.721-12.492 18.386-12.492 30.165s4.774 22.445 12.492 30.165v0z" />
<glyph unicode="&#xe91e;" glyph-name="chevron-double-up" d="M481.835 712.832c7.721 7.718 18.386 12.492 30.165 12.492s22.445-4.774 30.165-12.492l256-256c7.41-7.665 11.977-18.12 11.977-29.641 0-23.564-19.103-42.667-42.667-42.667-11.521 0-21.976 4.567-29.653 11.989l-225.823 225.823-225.835-225.835c-7.665-7.41-18.12-11.977-29.641-11.977-23.564 0-42.667 19.103-42.667 42.667 0 11.521 4.567 21.976 11.989 29.653l255.988 255.988zM512 366.336l-225.835-225.835c-7.665-7.41-18.12-11.977-29.641-11.977-23.564 0-42.667 19.103-42.667 42.667 0 11.521 4.567 21.976 11.989 29.653l255.988 255.988c7.721 7.718 18.386 12.492 30.165 12.492s22.445-4.774 30.165-12.492l256-256c7.41-7.665 11.977-18.12 11.977-29.641 0-23.564-19.103-42.667-42.667-42.667-11.521 0-21.976 4.567-29.653 11.989l-225.823 225.823z" />
<glyph unicode="&#xe91f;" glyph-name="chevron-down" d="M225.835 499.499c7.721 7.718 18.386 12.492 30.165 12.492s22.445-4.774 30.165-12.492l225.835-225.835 225.835 225.835c7.769 8.036 18.647 13.026 30.69 13.026 23.564 0 42.667-19.103 42.667-42.667 0-12.043-4.989-22.92-13.014-30.678l-256.012-256.012c-7.721-7.718-18.386-12.492-30.165-12.492s-22.445 4.774-30.165 12.492l-256 256c-7.718 7.721-12.492 18.386-12.492 30.165s4.774 22.445 12.492 30.165v0z" />
<glyph unicode="&#xe920;" glyph-name="chevron-left" d="M627.499 670.165c7.718-7.721 12.492-18.386 12.492-30.165s-4.774-22.445-12.492-30.165l-225.835-225.835 225.835-225.835c7.41-7.665 11.977-18.12 11.977-29.641 0-23.564-19.103-42.667-42.667-42.667-11.521 0-21.976 4.567-29.653 11.989l-255.988 255.988c-7.718 7.721-12.492 18.386-12.492 30.165s4.774 22.445 12.492 30.165l256 256c7.721 7.718 18.386 12.492 30.165 12.492s22.445-4.774 30.165-12.492v0z" />
<glyph unicode="&#xe921;" glyph-name="chevron-right" d="M396.501 97.835c-7.718 7.721-12.492 18.386-12.492 30.165s4.774 22.445 12.492 30.165l225.835 225.835-225.835 225.835c-7.41 7.665-11.977 18.12-11.977 29.641 0 23.564 19.103 42.667 42.667 42.667 11.521 0 21.976-4.567 29.653-11.989l255.988-255.988c7.718-7.721 12.492-18.386 12.492-30.165s-4.774-22.445-12.492-30.165l-256-256c-7.721-7.718-18.386-12.492-30.165-12.492s-22.445 4.774-30.165 12.492v0z" />
<glyph unicode="&#xe922;" glyph-name="chevron-up" d="M481.835 584.832c7.721 7.718 18.386 12.492 30.165 12.492s22.445-4.774 30.165-12.492l256-256c7.41-7.665 11.977-18.12 11.977-29.641 0-23.564-19.103-42.667-42.667-42.667-11.521 0-21.976 4.567-29.653 11.989l-225.823 225.823-225.835-225.835c-7.665-7.41-18.12-11.977-29.641-11.977-23.564 0-42.667 19.103-42.667 42.667 0 11.521 4.567 21.976 11.989 29.653l255.988 255.988z" />
<glyph unicode="&#xe923;" glyph-name="circle" d="M512 725.333c-188.513 0-341.333-152.82-341.333-341.333s152.82-341.333 341.333-341.333v0c188.513 0 341.333 152.82 341.333 341.333s-152.82 341.333-341.333 341.333v0zM85.333 384c0 235.648 191.019 426.667 426.667 426.667s426.667-191.019 426.667-426.667-191.019-426.667-426.667-426.667-426.667 191.019-426.667 426.667z" />
<glyph unicode="&#xe924;" glyph-name="circle-add" d="M512 725.333c-188.513 0-341.333-152.82-341.333-341.333s152.82-341.333 341.333-341.333v0c188.513 0 341.333 152.82 341.333 341.333s-152.82 341.333-341.333 341.333v0zM85.333 384c0 235.648 191.019 426.667 426.667 426.667s426.667-191.019 426.667-426.667-191.019-426.667-426.667-426.667-426.667 191.019-426.667 426.667zM512 597.333c23.564 0 42.667-19.103 42.667-42.667v0-128h128c23.564 0 42.667-19.103 42.667-42.667s-19.103-42.667-42.667-42.667v0h-128v-128c0-23.564-19.103-42.667-42.667-42.667s-42.667 19.103-42.667 42.667v0 128h-128c-23.564 0-42.667 19.103-42.667 42.667s19.103 42.667 42.667 42.667v0h128v128c0 23.564 19.103 42.667 42.667 42.667v0z" />
<glyph unicode="&#xe925;" glyph-name="circle-arrow-down" d="M512 725.333c-188.513 0-341.333-152.82-341.333-341.333s152.82-341.333 341.333-341.333v0c188.513 0 341.333 152.82 341.333 341.333s-152.82 341.333-341.333 341.333v0zM85.333 384c0 235.648 191.019 426.667 426.667 426.667s426.667-191.019 426.667-426.667-191.019-426.667-426.667-426.667-426.667 191.019-426.667 426.667zM512 640c23.564 0 42.667-19.103 42.667-42.667v0-323.669l97.835 97.835c7.665 7.41 18.12 11.977 29.641 11.977 23.564 0 42.667-19.103 42.667-42.667 0-11.521-4.567-21.976-11.989-29.653l-170.655-170.655c-7.721-7.718-18.386-12.492-30.165-12.492s-22.445 4.774-30.165 12.492l-170.667 170.667c-8.036 7.769-13.026 18.647-13.026 30.69 0 23.564 19.103 42.667 42.667 42.667 12.043 0 22.92-4.989 30.678-13.014l97.847-97.847v323.669c0 23.564 19.103 42.667 42.667 42.667v0z" />
<glyph unicode="&#xe926;" glyph-name="circle-arrow-left" d="M512 725.333c-188.513 0-341.333-152.82-341.333-341.333s152.82-341.333 341.333-341.333v0c188.513 0 341.333 152.82 341.333 341.333s-152.82 341.333-341.333 341.333v0zM85.333 384c0 235.648 191.019 426.667 426.667 426.667s426.667-191.019 426.667-426.667-191.019-426.667-426.667-426.667-426.667 191.019-426.667 426.667zM499.499 584.832c7.718-7.721 12.492-18.386 12.492-30.165s-4.774-22.445-12.492-30.165l-97.835-97.835h323.669c23.564 0 42.667-19.103 42.667-42.667s-19.103-42.667-42.667-42.667v0h-323.669l97.835-97.835c7.41-7.665 11.977-18.12 11.977-29.641 0-23.564-19.103-42.667-42.667-42.667-11.521 0-21.976 4.567-29.653 11.989l-170.655 170.655c-7.718 7.721-12.492 18.386-12.492 30.165s4.774 22.445 12.492 30.165l170.667 170.667c7.721 7.718 18.386 12.492 30.165 12.492s22.445-4.774 30.165-12.492v0z" />
<glyph unicode="&#xe927;" glyph-name="circle-arrow-right" d="M512 725.333c-188.513 0-341.333-152.82-341.333-341.333s152.82-341.333 341.333-341.333v0c188.513 0 341.333 152.82 341.333 341.333s-152.82 341.333-341.333 341.333v0zM85.333 384c0 235.648 191.019 426.667 426.667 426.667s426.667-191.019 426.667-426.667-191.019-426.667-426.667-426.667-426.667 191.019-426.667 426.667zM524.501 584.832c7.721 7.718 18.386 12.492 30.165 12.492s22.445-4.774 30.165-12.492l170.667-170.667c7.718-7.721 12.492-18.386 12.492-30.165s-4.774-22.445-12.492-30.165l-170.667-170.667c-7.665-7.41-18.12-11.977-29.641-11.977-23.564 0-42.667 19.103-42.667 42.667 0 11.521 4.567 21.976 11.989 29.653l97.823 97.823h-323.669c-23.564 0-42.667 19.103-42.667 42.667s19.103 42.667 42.667 42.667v0h323.669l-97.835 97.835c-7.718 7.721-12.492 18.386-12.492 30.165s4.774 22.445 12.492 30.165v0z" />
<glyph unicode="&#xe928;" glyph-name="circle-arrow-up" d="M512 725.333c-188.513 0-341.333-152.82-341.333-341.333s152.82-341.333 341.333-341.333v0c188.513 0 341.333 152.82 341.333 341.333s-152.82 341.333-341.333 341.333v0zM85.333 384c0 235.648 191.019 426.667 426.667 426.667s426.667-191.019 426.667-426.667-191.019-426.667-426.667-426.667-426.667 191.019-426.667 426.667zM469.333 494.336l-97.835-97.835c-7.665-7.41-18.12-11.977-29.641-11.977-23.564 0-42.667 19.103-42.667 42.667 0 11.521 4.567 21.976 11.989 29.653l170.655 170.655c7.721 7.718 18.386 12.492 30.165 12.492s22.445-4.774 30.165-12.492l170.667-170.667c7.41-7.665 11.977-18.12 11.977-29.641 0-23.564-19.103-42.667-42.667-42.667-11.521 0-21.976 4.567-29.653 11.989l-97.823 97.823v-323.669c0-23.564-19.103-42.667-42.667-42.667s-42.667 19.103-42.667 42.667v0 323.669z" />
<glyph unicode="&#xe929;" glyph-name="circle-check" d="M512 725.333c-188.513 0-341.333-152.82-341.333-341.333s152.82-341.333 341.333-341.333v0c188.513 0 341.333 152.82 341.333 341.333s-152.82 341.333-341.333 341.333v0zM85.333 384c0 235.648 191.019 426.667 426.667 426.667s426.667-191.019 426.667-426.667-191.019-426.667-426.667-426.667-426.667 191.019-426.667 426.667zM710.997 522.539c8.793-7.85 14.303-19.219 14.303-31.874 0-10.892-4.082-20.832-10.799-28.371l0.037 0.043-227.541-256c-7.851-8.806-19.228-14.325-31.893-14.325s-24.042 5.519-31.856 14.283l-0.037 0.042-113.749 128c-6.133 7.337-9.857 16.871-9.857 27.275 0 23.564 19.103 42.667 42.667 42.667 12.167 0 23.145-5.093 30.917-13.263l0.017-0.018 81.92-92.117 195.669 220.16c7.849 8.779 19.209 14.279 31.853 14.279 10.902 0 20.85-4.089 28.392-10.817l-0.042 0.037z" />
<glyph unicode="&#xe92a;" glyph-name="circle-error" d="M512 725.333c-188.513 0-341.333-152.82-341.333-341.333s152.82-341.333 341.333-341.333v0c188.513 0 341.333 152.82 341.333 341.333s-152.82 341.333-341.333 341.333v0zM85.333 384c0 235.648 191.019 426.667 426.667 426.667s426.667-191.019 426.667-426.667-191.019-426.667-426.667-426.667-426.667 191.019-426.667 426.667zM332.501 563.499c7.721 7.718 18.386 12.492 30.165 12.492s22.445-4.774 30.165-12.492l119.168-119.168 119.168 119.168c7.769 8.036 18.647 13.026 30.69 13.026 23.564 0 42.667-19.103 42.667-42.667 0-12.043-4.989-22.92-13.014-30.678l-119.18-119.18 119.168-119.168c7.41-7.665 11.977-18.12 11.977-29.641 0-23.564-19.103-42.667-42.667-42.667-11.521 0-21.976 4.567-29.653 11.989l-119.156 119.156-119.168-119.168c-7.665-7.41-18.12-11.977-29.641-11.977-23.564 0-42.667 19.103-42.667 42.667 0 11.521 4.567 21.976 11.989 29.653l119.156 119.156-119.168 119.168c-7.718 7.721-12.492 18.386-12.492 30.165s4.774 22.445 12.492 30.165v0z" />
<glyph unicode="&#xe92b;" glyph-name="circle-help" d="M512 725.333c-188.513 0-341.333-152.82-341.333-341.333s152.82-341.333 341.333-341.333v0c188.513 0 341.333 152.82 341.333 341.333s-152.82 341.333-341.333 341.333v0zM85.333 384c0 235.648 191.019 426.667 426.667 426.667s426.667-191.019 426.667-426.667-191.019-426.667-426.667-426.667-426.667 191.019-426.667 426.667zM512 298.667c-23.564 0-42.667 19.103-42.667 42.667v0 42.667c0 23.564 19.103 42.667 42.667 42.667s42.667-19.103 42.667-42.667v0-42.667c0-23.564-19.103-42.667-42.667-42.667v0zM448 192c0 35.346 28.654 64 64 64s64-28.654 64-64v0c0-35.346-28.654-64-64-64s-64 28.654-64 64v0zM528.64 562.731c-40.832 1.92-75.093-20.907-81.237-57.728-4.002-19.746-21.219-34.401-41.858-34.401-23.564 0-42.667 19.103-42.667 42.667 0 2.020 0.14 4.008 0.412 5.954l-0.026-0.225c15.189 91.136 98.261 132.352 169.429 128.939 36.437-1.707 73.941-14.805 102.784-41.771 29.568-27.605 47.189-67.2 47.189-115.499 0-55.083-21.675-95.957-59.008-120.832-34.261-22.827-76.288-28.501-111.659-28.501-23.564 0-42.667 19.103-42.667 42.667s19.103 42.667 42.667 42.667v0c28.587 0 50.603 4.992 64.341 14.165 10.667 7.125 20.992 19.627 20.992 49.835 0 26.368-9.045 42.795-20.139 53.163-11.819 11.051-29.013 17.92-48.555 18.901z" />
<glyph unicode="&#xe92c;" glyph-name="circle-information" d="M512 725.333c-188.513 0-341.333-152.82-341.333-341.333s152.82-341.333 341.333-341.333v0c188.513 0 341.333 152.82 341.333 341.333s-152.82 341.333-341.333 341.333v0zM85.333 384c0 235.648 191.019 426.667 426.667 426.667s426.667-191.019 426.667-426.667-191.019-426.667-426.667-426.667-426.667 191.019-426.667 426.667zM512 469.333c23.564 0 42.667-19.103 42.667-42.667v0-256c0-23.564-19.103-42.667-42.667-42.667s-42.667 19.103-42.667 42.667v0 256c0 23.564 19.103 42.667 42.667 42.667v0zM576 576c0-35.346-28.654-64-64-64s-64 28.654-64 64v0c0 35.346 28.654 64 64 64s64-28.654 64-64v0z" />
<glyph unicode="&#xe92d;" glyph-name="circle-remove" d="M512 725.333c-188.513 0-341.333-152.82-341.333-341.333s152.82-341.333 341.333-341.333v0c188.513 0 341.333 152.82 341.333 341.333s-152.82 341.333-341.333 341.333v0zM85.333 384c0 235.648 191.019 426.667 426.667 426.667s426.667-191.019 426.667-426.667-191.019-426.667-426.667-426.667-426.667 191.019-426.667 426.667zM298.667 384c0 23.564 19.103 42.667 42.667 42.667v0h341.333c23.564 0 42.667-19.103 42.667-42.667s-19.103-42.667-42.667-42.667v0h-341.333c-23.564 0-42.667 19.103-42.667 42.667v0z" />
<glyph unicode="&#xe92e;" glyph-name="circle-warning" d="M512 725.333c-188.513 0-341.333-152.82-341.333-341.333s152.82-341.333 341.333-341.333v0c188.513 0 341.333 152.82 341.333 341.333s-152.82 341.333-341.333 341.333v0zM85.333 384c0 235.648 191.019 426.667 426.667 426.667s426.667-191.019 426.667-426.667-191.019-426.667-426.667-426.667-426.667 191.019-426.667 426.667zM512 298.667c-23.564 0-42.667 19.103-42.667 42.667v0 256c0 23.564 19.103 42.667 42.667 42.667s42.667-19.103 42.667-42.667v0-256c0-23.564-19.103-42.667-42.667-42.667v0zM448 192c0 35.346 28.654 64 64 64s64-28.654 64-64v0c0-35.346-28.654-64-64-64s-64 28.654-64 64v0z" />
<glyph unicode="&#xe92f;" glyph-name="clipboard" d="M341.333 768c0 23.564 19.103 42.667 42.667 42.667v0h256c23.564 0 42.667-19.103 42.667-42.667v0h85.333c47.128 0 85.333-38.205 85.333-85.333v0-640c0-47.128-38.205-85.333-85.333-85.333v0h-512c-47.128 0-85.333 38.205-85.333 85.333v0 640c0 47.128 38.205 85.333 85.333 85.333v0h85.333zM341.333 682.667h-85.333v-640h512v640h-85.333v-42.667c0-23.564-19.103-42.667-42.667-42.667v0h-256c-23.564 0-42.667 19.103-42.667 42.667v0 42.667zM597.333 725.333h-170.667v-42.667h170.667v42.667z" />
<glyph unicode="&#xe930;" glyph-name="clipboard-check" d="M341.333 768c0 23.564 19.103 42.667 42.667 42.667v0h256c23.564 0 42.667-19.103 42.667-42.667v0h85.333c47.128 0 85.333-38.205 85.333-85.333v0-640c0-47.128-38.205-85.333-85.333-85.333v0h-512c-47.128 0-85.333 38.205-85.333 85.333v0 640c0 47.128 38.205 85.333 85.333 85.333v0h85.333zM341.333 682.667h-85.333v-640h512v640h-85.333v-42.667c0-23.564-19.103-42.667-42.667-42.667v0h-256c-23.564 0-42.667 19.103-42.667 42.667v0 42.667zM597.333 725.333h-170.667v-42.667h170.667v42.667zM670.165 435.499c7.718-7.721 12.492-18.386 12.492-30.165s-4.774-22.445-12.492-30.165l-170.667-170.667c-7.721-7.718-18.386-12.492-30.165-12.492s-22.445 4.774-30.165 12.492l-85.333 85.333c-8.036 7.769-13.026 18.647-13.026 30.69 0 23.564 19.103 42.667 42.667 42.667 12.043 0 22.92-4.989 30.678-13.014l55.18-55.18 140.501 140.501c7.721 7.718 18.386 12.492 30.165 12.492s22.445-4.774 30.165-12.492v0z" />
<glyph unicode="&#xe931;" glyph-name="clipboard-list" d="M384 405.333c23.564 0 42.667 19.103 42.667 42.667s-19.103 42.667-42.667 42.667v0c-23.564 0-42.667-19.103-42.667-42.667s19.103-42.667 42.667-42.667v0zM469.333 448c0 23.564 19.103 42.667 42.667 42.667v0h128c23.564 0 42.667-19.103 42.667-42.667s-19.103-42.667-42.667-42.667v0h-128c-23.564 0-42.667 19.103-42.667 42.667v0zM512 362.667c-23.564 0-42.667-19.103-42.667-42.667s19.103-42.667 42.667-42.667v0h128c23.564 0 42.667 19.103 42.667 42.667s-19.103 42.667-42.667 42.667v0h-128zM512 234.667c-23.564 0-42.667-19.103-42.667-42.667s19.103-42.667 42.667-42.667v0h128c23.564 0 42.667 19.103 42.667 42.667s-19.103 42.667-42.667 42.667v0h-128zM426.667 320c0-23.564-19.103-42.667-42.667-42.667s-42.667 19.103-42.667 42.667v0c0 23.564 19.103 42.667 42.667 42.667s42.667-19.103 42.667-42.667v0zM384 149.333c23.564 0 42.667 19.103 42.667 42.667s-19.103 42.667-42.667 42.667v0c-23.564 0-42.667-19.103-42.667-42.667s19.103-42.667 42.667-42.667v0zM384 810.667c-23.564 0-42.667-19.103-42.667-42.667v0h-85.333c-47.128 0-85.333-38.205-85.333-85.333v0-640c0-47.128 38.205-85.333 85.333-85.333v0h512c47.128 0 85.333 38.205 85.333 85.333v0 640c0 47.128-38.205 85.333-85.333 85.333v0h-85.333c0 23.564-19.103 42.667-42.667 42.667v0h-256zM682.667 682.667h85.333v-640h-512v640h85.333v-42.667c0-23.564 19.103-42.667 42.667-42.667v0h256c23.564 0 42.667 19.103 42.667 42.667v0 42.667zM426.667 682.667v42.667h170.667v-42.667h-170.667z" />
<glyph unicode="&#xe932;" glyph-name="clock" d="M512 725.333c-188.513 0-341.333-152.82-341.333-341.333s152.82-341.333 341.333-341.333v0c188.513 0 341.333 152.82 341.333 341.333s-152.82 341.333-341.333 341.333v0zM85.333 384c0 235.648 191.019 426.667 426.667 426.667s426.667-191.019 426.667-426.667-191.019-426.667-426.667-426.667-426.667 191.019-426.667 426.667zM512 640c23.564 0 42.667-19.103 42.667-42.667v0-195.669l115.499-115.499c7.41-7.665 11.977-18.12 11.977-29.641 0-23.564-19.103-42.667-42.667-42.667-11.521 0-21.976 4.567-29.653 11.989l-127.988 127.988c-7.722 7.719-12.499 18.384-12.501 30.165v213.334c0 23.564 19.103 42.667 42.667 42.667v0z" />
<glyph unicode="&#xe933;" glyph-name="close" d="M225.835 670.165c7.721 7.718 18.386 12.492 30.165 12.492s22.445-4.774 30.165-12.492l225.835-225.835 225.835 225.835c7.769 8.036 18.647 13.026 30.69 13.026 23.564 0 42.667-19.103 42.667-42.667 0-12.043-4.989-22.92-13.014-30.678l-225.847-225.847 225.835-225.835c7.41-7.665 11.977-18.12 11.977-29.641 0-23.564-19.103-42.667-42.667-42.667-11.521 0-21.976 4.567-29.653 11.989l-225.823 225.823-225.835-225.835c-7.665-7.41-18.12-11.977-29.641-11.977-23.564 0-42.667 19.103-42.667 42.667 0 11.521 4.567 21.976 11.989 29.653l225.823 225.823-225.835 225.835c-7.718 7.721-12.492 18.386-12.492 30.165s4.774 22.445 12.492 30.165v0z" />
<glyph unicode="&#xe934;" glyph-name="cloud" d="M213.333 469.333c0 0.044 0 0.096 0 0.148 0 141.385 114.615 256 256 256 111.44 0 206.249-71.206 241.41-170.602l0.552-1.791c128.641-14.77 227.615-123.037 227.615-254.421 0-141.385-114.615-256-256-256-0.086 0-0.172 0-0.258 0h-383.986c-0.039 0-0.086 0-0.132 0-117.821 0-213.333 95.513-213.333 213.333 0 87.234 52.358 162.239 127.364 195.303l1.366 0.537c-0.378 5.229-0.595 11.334-0.597 17.488v0.005zM469.333 640c-0.010 0-0.021 0-0.033 0-94.257 0-170.667-76.41-170.667-170.667 0-13.295 1.52-26.235 4.396-38.655l-0.224 1.151c0.654-2.798 1.029-6.011 1.029-9.312 0-20.254-14.112-37.211-33.040-41.576l-0.287-0.056c-57.295-13.565-99.269-64.281-99.269-124.802 0-70.509 56.972-127.711 127.393-128.084h384.035c93.524 0.965 168.969 77.005 168.969 170.667 0 94.261-76.414 170.675-170.675 170.675-0.6 0-1.199-0.003-1.798-0.009l0.091 0.001c-0.256-0.006-0.558-0.009-0.86-0.009-20.547 0-37.701 14.523-41.758 33.864l-0.049 0.278c-16.468 78.451-85.077 136.516-167.251 136.533h-0.002z" />
<glyph unicode="&#xe935;" glyph-name="cloud-download" d="M469.333 725.333c-0.004 0-0.008 0-0.013 0-94.257 0-170.667-76.41-170.667-170.667 0-1.53 0.020-3.056 0.060-4.577l-0.005 0.225c0.008-0.301 0.012-0.655 0.012-1.010 0-19.778-13.457-36.413-31.714-41.248l-0.298-0.067c-55.464-14.882-95.629-64.703-95.629-123.905 0-70.564 57.062-127.801 127.56-128.084h42.694c23.564 0 42.667-19.103 42.667-42.667s-19.103-42.667-42.667-42.667v0h-42.667c-0.013 0-0.029 0-0.045 0-117.821 0-213.333 95.513-213.333 213.333 0 87.461 52.632 162.63 127.951 195.561l1.373 0.535c13.355 130.022 122.301 230.584 254.735 230.584 94.331 0 176.746-51.021 221.154-126.972l0.655-1.212c137.322-5.153 246.69-117.72 246.69-255.831 0-141.097-114.148-255.533-255.136-255.999h-0.044c-23.564 0-42.667 19.103-42.667 42.667s19.103 42.667 42.667 42.667v0c94.15 0.141 170.418 76.497 170.418 170.666 0 94.257-76.41 170.667-170.667 170.667-4.838 0-9.63-0.201-14.366-0.596l0.62 0.042c-1.036-0.089-2.241-0.14-3.458-0.14-17.445 0-32.444 10.469-39.058 25.467l-0.107 0.273c-26.9 61.083-86.904 102.955-156.688 102.955-0.010 0-0.019 0-0.029 0h0.001zM512 469.333c23.564 0 42.667-19.103 42.667-42.667v0-323.669l12.501 12.501c7.665 7.41 18.12 11.977 29.641 11.977 23.564 0 42.667-19.103 42.667-42.667 0-11.521-4.567-21.976-11.989-29.653l-85.321-85.321c-7.721-7.718-18.386-12.492-30.165-12.492s-22.445 4.774-30.165 12.492l-85.333 85.333c-8.036 7.769-13.026 18.647-13.026 30.69 0 23.564 19.103 42.667 42.667 42.667 12.043 0 22.92-4.989 30.678-13.014l12.513-12.513v323.669c0 23.564 19.103 42.667 42.667 42.667v0z" />
<glyph unicode="&#xe936;" glyph-name="cloud-upload" d="M469.333 725.333c-0.004 0-0.008 0-0.013 0-94.257 0-170.667-76.41-170.667-170.667 0-1.53 0.020-3.056 0.060-4.577l-0.005 0.225c0.008-0.301 0.012-0.655 0.012-1.010 0-19.778-13.457-36.413-31.714-41.248l-0.298-0.067c-55.464-14.882-95.629-64.703-95.629-123.905 0-70.564 57.062-127.801 127.56-128.084h42.694c23.564 0 42.667-19.103 42.667-42.667s-19.103-42.667-42.667-42.667v0h-42.667c-0.013 0-0.029 0-0.045 0-117.821 0-213.333 95.513-213.333 213.333 0 87.461 52.632 162.63 127.951 195.561l1.373 0.535c13.355 130.022 122.301 230.584 254.735 230.584 94.331 0 176.746-51.021 221.154-126.972l0.655-1.212c137.322-5.153 246.69-117.72 246.69-255.831 0-141.097-114.148-255.533-255.136-255.999h-0.044c-23.564 0-42.667 19.103-42.667 42.667s19.103 42.667 42.667 42.667v0c94.15 0.141 170.418 76.497 170.418 170.666 0 94.257-76.41 170.667-170.667 170.667-4.838 0-9.63-0.201-14.366-0.596l0.62 0.042c-1.036-0.089-2.241-0.14-3.458-0.14-17.445 0-32.444 10.469-39.058 25.467l-0.107 0.273c-26.9 61.083-86.904 102.955-156.688 102.955-0.010 0-0.019 0-0.029 0h0.001zM481.835 499.499c7.721 7.718 18.386 12.492 30.165 12.492s22.445-4.774 30.165-12.492l85.333-85.333c7.41-7.665 11.977-18.12 11.977-29.641 0-23.564-19.103-42.667-42.667-42.667-11.521 0-21.976 4.567-29.653 11.989l-12.489 12.489v-323.669c0-23.564-19.103-42.667-42.667-42.667s-42.667 19.103-42.667 42.667v0 323.669l-12.501-12.501c-7.665-7.41-18.12-11.977-29.641-11.977-23.564 0-42.667 19.103-42.667 42.667 0 11.521 4.567 21.976 11.989 29.653l85.321 85.321z" />
<glyph unicode="&#xe937;" glyph-name="cloudy" d="M682.667 682.667c0.008 0 0.017 0 0.026 0 70.692 0 128-57.308 128-128 0-24.786-7.045-47.927-19.242-67.53l0.315 0.543c-23.428 11.327-50.64 19.362-79.3 22.633l-1.17 0.109c-21.067 59.492-61.621 107.689-113.843 138.008l-1.229 0.659c22.628 20.817 52.952 33.579 86.255 33.579 0.066 0 0.132 0 0.197 0h-0.010zM509.653 679.509c-12.121 2.034-26.087 3.196-40.324 3.196-141.385 0-256-114.615-256-256 0-6.169 0.218-12.287 0.647-18.346l-0.046 0.814c-76.371-33.601-128.73-108.606-128.73-195.84 0-117.821 95.513-213.333 213.333-213.333 0.046 0 0.093 0 0.139 0h383.993c0.002 0 0.004 0 0.006 0 141.385 0 256 114.615 256 256 0 71.596-29.391 136.327-76.765 182.786l-0.041 0.040c21.727 32.87 34.663 73.208 34.663 116.568 0 117.821-95.513 213.333-213.333 213.333-71.265 0-134.369-34.944-173.112-88.633l-0.431-0.628zM298.667 426.667c0 0.051 0 0.111 0 0.172 0 94.257 76.41 170.667 170.667 170.667 82.236 0 150.886-58.163 167.060-135.596l0.194-1.109c4.105-19.619 21.26-34.142 41.806-34.142 0.302 0 0.604 0.003 0.905 0.009l-0.045-0.001h3.413c94.257 0 170.667-76.41 170.667-170.667s-76.41-170.667-170.667-170.667v0h-384c-0.028 0-0.062 0-0.095 0-70.692 0-128 57.308-128 128 0 60.744 42.313 111.606 99.073 124.718l0.862 0.168c19.215 4.421 33.327 21.378 33.327 41.632 0 3.301-0.375 6.514-1.084 9.599l0.056-0.287c-2.631 11.25-4.139 24.167-4.139 37.437 0 0.023 0 0.047 0 0.070v-0.004z" />
<glyph unicode="&#xe938;" glyph-name="comment" d="M213.333 768c-47.128 0-85.333-38.205-85.333-85.333v0-597.333c0-47.128 38.205-85.333 85.333-85.333v0h597.333c47.128 0 85.333 38.205 85.333 85.333v0 597.333c0 47.128-38.205 85.333-85.333 85.333v0h-597.333zM810.667 401.664l-316.331-316.331h-281.003v597.333h597.333v-281.003zM614.997 85.333l195.669 195.669v-195.669h-195.669z" />
<glyph unicode="&#xe939;" glyph-name="compass" d="M170.667 384c0 188.513 152.82 341.333 341.333 341.333s341.333-152.82 341.333-341.333v0c0-188.513-152.82-341.333-341.333-341.333s-341.333 152.82-341.333 341.333v0zM512 810.667c-235.648 0-426.667-191.019-426.667-426.667s191.019-426.667 426.667-426.667 426.667 191.019 426.667 426.667-191.019 426.667-426.667 426.667zM572.331 323.669l90.539 211.2-211.2-90.539-90.539-211.2 211.2 90.539z" />
<glyph unicode="&#xe93a;" glyph-name="computer" d="M85.333 682.667c0 47.128 38.205 85.333 85.333 85.333v0h682.667c47.128 0 85.333-38.205 85.333-85.333v0-469.333c0-47.128-38.205-85.333-85.333-85.333v0h-298.667v-85.333h128c23.564 0 42.667-19.103 42.667-42.667s-19.103-42.667-42.667-42.667v0h-341.333c-23.564 0-42.667 19.103-42.667 42.667s19.103 42.667 42.667 42.667v0h128v85.333h-298.667c-47.128 0-85.333 38.205-85.333 85.333v0 469.333zM853.333 213.333v469.333h-682.667v-469.333h682.667z" />
<glyph unicode="&#xe93b;" glyph-name="copy" d="M85.333 725.333c0 47.128 38.205 85.333 85.333 85.333v0h426.667c47.128 0 85.333-38.205 85.333-85.333v0-170.667h170.667c47.128 0 85.333-38.205 85.333-85.333v0-426.667c0-47.128-38.205-85.333-85.333-85.333v0h-426.667c-47.128 0-85.333 38.205-85.333 85.333v0 170.667h-170.667c-47.128 0-85.333 38.205-85.333 85.333v0 426.667zM426.667 213.333v-170.667h426.667v426.667h-170.667v-170.667c0-47.128-38.205-85.333-85.333-85.333v0h-170.667zM597.333 298.667v426.667h-426.667v-426.667h426.667z" />
<glyph unicode="&#xe93c;" glyph-name="credit-card" d="M938.667 640c0 47.128-38.205 85.333-85.333 85.333v0h-682.667c-47.128 0-85.333-38.205-85.333-85.333v0-512c0-47.128 38.205-85.333 85.333-85.333v0h682.667c47.128 0 85.333 38.205 85.333 85.333v0 512zM853.333 554.667h-682.667v85.333h682.667v-85.333zM170.667 426.667h682.667v-298.667h-682.667v298.667z" />
<glyph unicode="&#xe93d;" glyph-name="database" d="M213.333 640c0-1.109 0.427-7.253 12.459-17.92 11.947-10.581 31.744-22.101 59.819-32.64 55.893-20.907 135.936-34.773 226.389-34.773s170.539 13.824 226.389 34.773c28.075 10.539 47.829 22.059 59.819 32.683 12.032 10.624 12.459 16.768 12.459 17.877s-0.427 7.253-12.459 17.92c-11.947 10.581-31.744 22.101-59.819 32.64-55.893 20.907-135.936 34.773-226.389 34.773s-170.539-13.824-226.389-34.773c-28.075-10.539-47.829-22.059-59.819-32.683-12.032-10.624-12.459-16.768-12.459-17.877zM128 640c0 34.261 18.645 61.781 41.173 81.749 22.613 20.011 52.821 36.096 86.485 48.725 67.669 25.387 158.293 40.192 256.341 40.192 98.005 0 188.672-14.805 256.341-40.192 33.707-12.629 63.915-28.715 86.485-48.725 22.485-19.968 41.173-47.488 41.173-81.749v-512c0-34.261-18.688-61.781-41.173-81.749-22.613-20.011-52.821-36.096-86.485-48.725-67.669-25.387-158.293-40.192-256.341-40.192-98.005 0-188.672 14.848-256.341 40.192-33.707 12.629-63.915 28.715-86.485 48.725-22.528 19.968-41.173 47.488-41.173 81.749v512zM213.333 469.333c0-1.067 0.427-7.253 12.459-17.92 11.947-10.581 31.744-22.101 59.819-32.64 55.893-20.907 135.936-34.773 226.389-34.773s170.539 13.824 226.389 34.773c28.075 10.539 47.829 22.059 59.819 32.683 12.032 10.667 12.459 16.811 12.459 17.877v59.051c-11.489-6.216-25.439-12.564-39.827-18.026l-2.499-0.833c-67.669-25.387-158.293-40.192-256.341-40.192-98.005 0-188.672 14.805-256.341 40.192-16.885 6.294-30.836 12.643-44.284 19.812l1.958-0.953v-59.051zM213.333 357.717v-59.051c0-1.067 0.427-7.253 12.459-17.92 11.947-10.581 31.744-22.101 59.819-32.64 55.893-20.907 135.936-34.773 226.389-34.773s170.539 13.824 226.389 34.773c28.075 10.539 47.829 22.059 59.819 32.683 12.032 10.667 12.459 16.811 12.459 17.877v59.051c-13.227-6.997-27.435-13.227-42.325-18.859-67.669-25.387-158.293-40.192-256.341-40.192-98.005 0-188.672 14.848-256.341 40.192-16.886 6.294-30.836 12.643-44.284 19.812l1.958-0.953zM213.333 187.051v-59.051c0-1.109 0.427-7.253 12.459-17.92 11.947-10.581 31.744-22.101 59.819-32.64 55.893-20.907 135.936-34.773 226.389-34.773s170.539 13.824 226.389 34.773c28.075 10.539 47.829 22.059 59.819 32.64 12.032 10.667 12.459 16.853 12.459 17.92v59.051c-13.227-6.997-27.435-13.227-42.325-18.859-67.669-25.387-158.293-40.192-256.341-40.192-98.005 0-188.672 14.848-256.341 40.192-16.886 6.294-30.836 12.643-44.284 19.812l1.958-0.953z" />
<glyph unicode="&#xe93e;" glyph-name="delete" d="M298.667 725.333c0 47.128 38.205 85.333 85.333 85.333v0h256c47.128 0 85.333-38.205 85.333-85.333v0-85.333h170.667c23.564 0 42.667-19.103 42.667-42.667s-19.103-42.667-42.667-42.667v0h-45.611l-36.992-518.059c-3.26-44.448-40.122-79.275-85.118-79.275-0.001 0-0.001 0-0.002 0h-432.597c-0.001 0-0.001 0-0.002 0-44.996 0-81.858 34.827-85.101 78.995l-0.017 0.28-36.907 518.059h-45.653c-23.564 0-42.667 19.103-42.667 42.667s19.103 42.667 42.667 42.667v0h170.667v85.333zM384 640h256v85.333h-256v-85.333zM259.157 554.667l36.565-512h432.597l36.565 512h-505.728zM426.667 469.333c23.564 0 42.667-19.103 42.667-42.667v0-256c0-23.564-19.103-42.667-42.667-42.667s-42.667 19.103-42.667 42.667v0 256c0 23.564 19.103 42.667 42.667 42.667v0zM597.333 469.333c23.564 0 42.667-19.103 42.667-42.667v0-256c0-23.564-19.103-42.667-42.667-42.667s-42.667 19.103-42.667 42.667v0 256c0 23.564 19.103 42.667 42.667 42.667v0z" />
<glyph unicode="&#xe93f;" glyph-name="delete-alt" d="M298.667 725.333c0 47.128 38.205 85.333 85.333 85.333v0h256c47.128 0 85.333-38.205 85.333-85.333v0-85.333h170.667c23.564 0 42.667-19.103 42.667-42.667s-19.103-42.667-42.667-42.667v0h-45.611l-36.992-518.059c-3.26-44.448-40.122-79.275-85.118-79.275-0.001 0-0.001 0-0.002 0h-432.597c-0.001 0-0.001 0-0.002 0-44.996 0-81.858 34.827-85.101 78.995l-0.017 0.28-36.907 518.059h-45.653c-23.564 0-42.667 19.103-42.667 42.667s19.103 42.667 42.667 42.667v0h170.667v85.333zM384 640h256v85.333h-256v-85.333zM259.157 554.667l36.565-512h432.597l36.565 512h-505.728z" />
<glyph unicode="&#xe940;" glyph-name="document" d="M170.667 725.333c0 47.128 38.205 85.333 85.333 85.333v0h341.333c11.781-0.003 22.446-4.78 30.165-12.501l213.333-213.333c7.722-7.719 12.499-18.384 12.501-30.165v-512.001c0-47.128-38.205-85.333-85.333-85.333v0h-512c-47.128 0-85.333 38.205-85.333 85.333v0 682.667zM750.336 554.667l-153.003 153.003v-153.003h153.003zM512 725.333h-256v-682.667h512v426.667h-213.333c-23.564 0-42.667 19.103-42.667 42.667v0 213.333zM341.333 341.333c0 23.564 19.103 42.667 42.667 42.667v0h256c23.564 0 42.667-19.103 42.667-42.667s-19.103-42.667-42.667-42.667v0h-256c-23.564 0-42.667 19.103-42.667 42.667v0zM341.333 170.667c0 23.564 19.103 42.667 42.667 42.667v0h256c23.564 0 42.667-19.103 42.667-42.667s-19.103-42.667-42.667-42.667v0h-256c-23.564 0-42.667 19.103-42.667 42.667v0z" />
<glyph unicode="&#xe941;" glyph-name="document-add" d="M170.667 725.333c0 47.128 38.205 85.333 85.333 85.333v0h341.333c11.781-0.003 22.446-4.78 30.165-12.501l213.333-213.333c7.722-7.719 12.499-18.384 12.501-30.165v-512.001c0-47.128-38.205-85.333-85.333-85.333v0h-512c-47.128 0-85.333 38.205-85.333 85.333v0 682.667zM750.336 554.667l-153.003 153.003v-153.003h153.003zM512 725.333h-256v-682.667h512v426.667h-213.333c-23.564 0-42.667 19.103-42.667 42.667v0 213.333zM512 384c23.564 0 42.667-19.103 42.667-42.667v0-42.667h42.667c23.564 0 42.667-19.103 42.667-42.667s-19.103-42.667-42.667-42.667v0h-42.667v-42.667c0-23.564-19.103-42.667-42.667-42.667s-42.667 19.103-42.667 42.667v0 42.667h-42.667c-23.564 0-42.667 19.103-42.667 42.667s19.103 42.667 42.667 42.667v0h42.667v42.667c0 23.564 19.103 42.667 42.667 42.667v0z" />
<glyph unicode="&#xe942;" glyph-name="document-check" d="M170.667 725.333c0 47.128 38.205 85.333 85.333 85.333v0h341.333c11.781-0.003 22.446-4.78 30.165-12.501l213.333-213.333c7.722-7.719 12.499-18.384 12.501-30.165v-512.001c0-47.128-38.205-85.333-85.333-85.333v0h-512c-47.128 0-85.333 38.205-85.333 85.333v0 682.667zM750.336 554.667l-153.003 153.003v-153.003h153.003zM512 725.333h-256v-682.667h512v426.667h-213.333c-23.564 0-42.667 19.103-42.667 42.667v0 213.333zM670.165 371.499c7.718-7.721 12.492-18.386 12.492-30.165s-4.774-22.445-12.492-30.165l-170.667-170.667c-7.721-7.718-18.386-12.492-30.165-12.492s-22.445 4.774-30.165 12.492l-85.333 85.333c-8.036 7.769-13.026 18.647-13.026 30.69 0 23.564 19.103 42.667 42.667 42.667 12.043 0 22.92-4.989 30.678-13.014l55.18-55.18 140.501 140.501c7.721 7.718 18.386 12.492 30.165 12.492s22.445-4.774 30.165-12.492v0z" />
<glyph unicode="&#xe943;" glyph-name="document-download" d="M170.667 725.333c0 47.128 38.205 85.333 85.333 85.333v0h341.333c11.781-0.003 22.446-4.78 30.165-12.501l213.333-213.333c7.722-7.719 12.499-18.384 12.501-30.165v-512.001c0-47.128-38.205-85.333-85.333-85.333v0h-512c-47.128 0-85.333 38.205-85.333 85.333v0 682.667zM750.336 554.667l-153.003 153.003v-153.003h153.003zM512 725.333h-256v-682.667h512v426.667h-213.333c-23.564 0-42.667 19.103-42.667 42.667v0 213.333zM512 405.333c23.564 0 42.667-19.103 42.667-42.667v0-110.336l12.501 12.501c7.665 7.41 18.12 11.977 29.641 11.977 23.564 0 42.667-19.103 42.667-42.667 0-11.521-4.567-21.976-11.989-29.653l-85.321-85.321c-7.721-7.718-18.386-12.492-30.165-12.492s-22.445 4.774-30.165 12.492l-85.333 85.333c-8.036 7.769-13.026 18.647-13.026 30.69 0 23.564 19.103 42.667 42.667 42.667 12.043 0 22.92-4.989 30.678-13.014l12.513-12.513v110.336c0 23.564 19.103 42.667 42.667 42.667v0z" />
<glyph unicode="&#xe944;" glyph-name="document-empty" d="M170.667 725.333c0 47.128 38.205 85.333 85.333 85.333v0h341.333c11.781-0.003 22.446-4.78 30.165-12.501l213.333-213.333c7.722-7.719 12.499-18.384 12.501-30.165v-512.001c0-47.128-38.205-85.333-85.333-85.333v0h-512c-47.128 0-85.333 38.205-85.333 85.333v0 682.667zM750.336 554.667l-153.003 153.003v-153.003h153.003zM512 725.333h-256v-682.667h512v426.667h-213.333c-23.564 0-42.667 19.103-42.667 42.667v0 213.333z" />
<glyph unicode="&#xe945;" glyph-name="document-remove" d="M170.667 725.333c0 47.128 38.205 85.333 85.333 85.333v0h341.333c11.781-0.003 22.446-4.78 30.165-12.501l213.333-213.333c7.722-7.719 12.499-18.384 12.501-30.165v-512.001c0-47.128-38.205-85.333-85.333-85.333v0h-512c-47.128 0-85.333 38.205-85.333 85.333v0 682.667zM750.336 554.667l-153.003 153.003v-153.003h153.003zM512 725.333h-256v-682.667h512v426.667h-213.333c-23.564 0-42.667 19.103-42.667 42.667v0 213.333zM384 256c0 23.564 19.103 42.667 42.667 42.667v0h170.667c23.564 0 42.667-19.103 42.667-42.667s-19.103-42.667-42.667-42.667v0h-170.667c-23.564 0-42.667 19.103-42.667 42.667v0z" />
<glyph unicode="&#xe946;" glyph-name="download" d="M512 810.667c23.564 0 42.667-19.103 42.667-42.667v0-451.669l97.835 97.835c7.665 7.41 18.12 11.977 29.641 11.977 23.564 0 42.667-19.103 42.667-42.667 0-11.521-4.567-21.976-11.989-29.653l-170.655-170.655c-7.721-7.718-18.386-12.492-30.165-12.492s-22.445 4.774-30.165 12.492l-170.667 170.667c-8.036 7.769-13.026 18.647-13.026 30.69 0 23.564 19.103 42.667 42.667 42.667 12.043 0 22.92-4.989 30.678-13.014l97.847-97.847v451.669c0 23.564 19.103 42.667 42.667 42.667v0zM213.333 170.667c23.564 0 42.667-19.103 42.667-42.667v0-85.333h512v85.333c0 23.564 19.103 42.667 42.667 42.667s42.667-19.103 42.667-42.667v0-85.333c0-47.128-38.205-85.333-85.333-85.333v0h-512c-47.128 0-85.333 38.205-85.333 85.333v0 85.333c0 23.564 19.103 42.667 42.667 42.667v0z" />
<glyph unicode="&#xe947;" glyph-name="drag" d="M170.667 640c0 23.564 19.103 42.667 42.667 42.667v0h597.333c23.564 0 42.667-19.103 42.667-42.667s-19.103-42.667-42.667-42.667v0h-597.333c-23.564 0-42.667 19.103-42.667 42.667v0zM170.667 469.333c0 23.564 19.103 42.667 42.667 42.667v0h597.333c23.564 0 42.667-19.103 42.667-42.667s-19.103-42.667-42.667-42.667v0h-597.333c-23.564 0-42.667 19.103-42.667 42.667v0zM170.667 298.667c0 23.564 19.103 42.667 42.667 42.667v0h597.333c23.564 0 42.667-19.103 42.667-42.667s-19.103-42.667-42.667-42.667v0h-597.333c-23.564 0-42.667 19.103-42.667 42.667v0zM170.667 128c0 23.564 19.103 42.667 42.667 42.667v0h597.333c23.564 0 42.667-19.103 42.667-42.667s-19.103-42.667-42.667-42.667v0h-597.333c-23.564 0-42.667 19.103-42.667 42.667v0z" />
<glyph unicode="&#xe948;" glyph-name="drop" d="M539.733 800.427c-7.409 6.365-17.117 10.24-27.73 10.24-10.636 0-20.363-3.892-27.835-10.329l0.056 0.047-3.797-3.285c-16.236-14.489-30.868-28.162-45.189-42.153l0.261 0.254c-36.714-35.824-71.284-73.246-103.847-112.395l-1.923-2.379c-38.485-46.677-77.781-101.248-107.605-158.805-29.653-57.173-51.456-120.149-51.456-182.955 0-188.513 152.82-341.333 341.333-341.333s341.333 152.82 341.333 341.333v0c0 62.805-21.803 125.781-51.456 182.955-29.867 57.6-69.12 112.128-107.605 158.848-44.515 53.557-90.542 101.787-139.646 146.709l-1.112 1.003-13.739 12.203zM256 298.667c0 43.861 15.531 92.885 41.856 143.701 26.197 50.432 61.568 99.883 97.707 143.829 37.337 44.946 75.401 85.47 115.77 123.578l0.668 0.625c41.022-38.711 79.072-79.207 114.589-121.885l1.806-2.232c36.181-43.947 71.552-93.44 97.707-143.872 26.368-50.816 41.899-99.84 41.899-143.701 0-141.385-114.615-256-256-256s-256 114.615-256 256v0zM356.693 296.875c-17.793-5.407-30.519-21.668-30.519-40.901 0-4.326 0.644-8.501 1.841-12.436l-0.079 0.302c19.003-62.218 67.019-110.234 127.875-128.878l1.363-0.359c3.727-1.179 8.012-1.859 12.457-1.859 23.564 0 42.667 19.103 42.667 42.667 0 19.338-12.864 35.67-30.502 40.907l-0.302 0.077c-34.531 10.585-61.18 37.235-71.565 71.007l-0.201 0.758c-5.419 17.773-21.67 30.48-40.889 30.48-4.33 0-8.51-0.645-12.448-1.844l0.302 0.079z" />
<glyph unicode="&#xe949;" glyph-name="edit" d="M695.168 798.165c7.721 7.718 18.386 12.492 30.165 12.492s22.445-4.774 30.165-12.492l170.667-170.667c7.718-7.721 12.492-18.386 12.492-30.165s-4.774-22.445-12.492-30.165l-554.667-554.667c-7.719-7.722-18.384-12.499-30.165-12.501h-170.667c-23.564 0-42.667 19.103-42.667 42.667v0 170.667c0.003 11.781 4.78 22.446 12.501 30.165l554.667 554.667zM597.333 579.669l-384-384v-110.336h110.336l384 384-110.336 110.336zM768 529.664l67.669 67.669-110.336 110.336-67.669-67.669 110.336-110.336z" />
<glyph unicode="&#xe94a;" glyph-name="edit-alt" d="M695.168 755.499c7.721 7.718 18.386 12.492 30.165 12.492s22.445-4.774 30.165-12.492l128-128c7.718-7.721 12.492-18.386 12.492-30.165s-4.774-22.445-12.492-30.165l-384-384c-7.719-7.722-18.384-12.499-30.165-12.501h-128.001c-23.564 0-42.667 19.103-42.667 42.667v0 128c0.003 11.781 4.78 22.446 12.501 30.165l384 384zM384 323.669v-67.669h67.669l341.333 341.333-67.669 67.669-341.333-341.333zM128 597.333c0 47.128 38.205 85.333 85.333 85.333v0h213.333c23.564 0 42.667-19.103 42.667-42.667s-19.103-42.667-42.667-42.667v0h-213.333v-512h512v213.333c0 23.564 19.103 42.667 42.667 42.667s42.667-19.103 42.667-42.667v0-213.333c0-47.128-38.205-85.333-85.333-85.333v0h-512c-47.128 0-85.333 38.205-85.333 85.333v0 512z" />
<glyph unicode="&#xe94b;" glyph-name="email" d="M85.333 640c0 47.128 38.205 85.333 85.333 85.333v0h682.667c47.128 0 85.333-38.205 85.333-85.333v0-512c0-47.128-38.205-85.333-85.333-85.333v0h-682.667c-47.128 0-85.333 38.205-85.333 85.333v0 512zM235.477 640l276.523-241.963 276.523 241.963h-553.003zM853.333 583.296l-313.216-274.091c-7.467-6.567-17.324-10.575-28.117-10.575s-20.651 4.008-28.165 10.616l0.048-0.041-313.216 274.091v-455.296h682.667v455.296z" />
<glyph unicode="&#xe94c;" glyph-name="enter" d="M128 298.667c0 23.564 19.103 42.667 42.667 42.667v0h512c70.692 0 128 57.308 128 128v0 170.667c0 23.564 19.103 42.667 42.667 42.667s42.667-19.103 42.667-42.667v0-170.667c0-117.821-95.513-213.333-213.333-213.333v0h-512c-23.564 0-42.667 19.103-42.667 42.667v0zM140.501 268.501c-7.718 7.721-12.492 18.386-12.492 30.165s4.774 22.445 12.492 30.165l170.667 170.667c7.665 7.41 18.12 11.977 29.641 11.977 23.564 0 42.667-19.103 42.667-42.667 0-11.521-4.567-21.976-11.989-29.653l-140.489-140.489 140.501-140.501c8.036-7.769 13.026-18.647 13.026-30.69 0-23.564-19.103-42.667-42.667-42.667-12.043 0-22.92 4.989-30.678 13.014l-170.679 170.679z" />
<glyph unicode="&#xe94d;" glyph-name="expand" d="M725.333 810.667c-23.564 0-42.667-19.103-42.667-42.667s19.103-42.667 42.667-42.667v0h67.669l-183.168-183.168c-7.41-7.665-11.977-18.12-11.977-29.641 0-23.564 19.103-42.667 42.667-42.667 11.521 0 21.976 4.567 29.653 11.989l183.156 183.156v-67.669c0-23.564 19.103-42.667 42.667-42.667s42.667 19.103 42.667 42.667v0 170.667c0 23.564-19.103 42.667-42.667 42.667v0h-170.667zM170.667 102.997v67.669c0 23.564-19.103 42.667-42.667 42.667s-42.667-19.103-42.667-42.667v0-170.667c0-23.564 19.103-42.667 42.667-42.667v0h170.667c23.564 0 42.667 19.103 42.667 42.667s-19.103 42.667-42.667 42.667v0h-67.669l183.168 183.168c7.41 7.665 11.977 18.12 11.977 29.641 0 23.564-19.103 42.667-42.667 42.667-11.521 0-21.976-4.567-29.653-11.989l-183.156-183.156z" />
<glyph unicode="&#xe94e;" glyph-name="export" d="M481.835 798.165c7.721 7.718 18.386 12.492 30.165 12.492s22.445-4.774 30.165-12.492l170.667-170.667c7.41-7.665 11.977-18.12 11.977-29.641 0-23.564-19.103-42.667-42.667-42.667-11.521 0-21.976 4.567-29.653 11.989l-97.823 97.823v-451.669c0-23.564-19.103-42.667-42.667-42.667s-42.667 19.103-42.667 42.667v0 451.669l-97.835-97.835c-7.665-7.41-18.12-11.977-29.641-11.977-23.564 0-42.667 19.103-42.667 42.667 0 11.521 4.567 21.976 11.989 29.653l170.655 170.655zM213.333 170.667c23.564 0 42.667-19.103 42.667-42.667v0-85.333h512v85.333c0 23.564 19.103 42.667 42.667 42.667s42.667-19.103 42.667-42.667v0-85.333c0-47.128-38.205-85.333-85.333-85.333v0h-512c-47.128 0-85.333 38.205-85.333 85.333v0 85.333c0 23.564 19.103 42.667 42.667 42.667v0z" />
<glyph unicode="&#xe94f;" glyph-name="external-link" d="M597.333 682.667c-23.564 0-42.667 19.103-42.667 42.667s19.103 42.667 42.667 42.667v0h256c23.564 0 42.667-19.103 42.667-42.667v0-256c0-23.564-19.103-42.667-42.667-42.667s-42.667 19.103-42.667 42.667v0 153.003l-396.501-396.501c-7.665-7.41-18.12-11.977-29.641-11.977-23.564 0-42.667 19.103-42.667 42.667 0 11.521 4.567 21.976 11.989 29.653l396.489 396.489h-153.003zM128 597.333c0 47.128 38.205 85.333 85.333 85.333v0h213.333c23.564 0 42.667-19.103 42.667-42.667s-19.103-42.667-42.667-42.667v0h-213.333v-512h512v213.333c0 23.564 19.103 42.667 42.667 42.667s42.667-19.103 42.667-42.667v0-213.333c0-47.128-38.205-85.333-85.333-85.333v0h-512c-47.128 0-85.333 38.205-85.333 85.333v0 512z" />
<glyph unicode="&#xe950;" glyph-name="eye" d="M640 384c0-70.692-57.308-128-128-128s-128 57.308-128 128v0c0 70.692 57.308 128 128 128s128-57.308 128-128v0zM934.144 403.072c-92.075 184.192-255.573 279.595-422.144 279.595-166.528 0-330.069-95.403-422.144-279.595-2.837-5.557-4.5-12.12-4.5-19.072s1.663-13.515 4.612-19.314l-0.112 0.242c92.075-184.192 255.573-279.595 422.144-279.595 166.528 0 330.069 95.403 422.144 279.595 2.837 5.557 4.5 12.12 4.5 19.072s-1.663 13.515-4.612 19.314l0.112-0.242zM512 170.667c-126.677 0-256.085 69.12-335.787 213.333 79.701 144.213 209.067 213.333 335.787 213.333 126.677 0 256.085-69.12 335.787-213.333-79.701-144.213-209.109-213.333-335.787-213.333z" />
<glyph unicode="&#xe951;" glyph-name="eye-off" d="M200.832 755.499c-7.665 7.41-18.12 11.977-29.641 11.977-23.564 0-42.667-19.103-42.667-42.667 0-11.521 4.567-21.976 11.989-29.653l103.412-103.412c-61.013-45.909-114.261-108.971-154.069-188.672-2.837-5.557-4.5-12.12-4.5-19.072s1.663-13.515 4.612-19.314l-0.112 0.242c92.075-184.192 255.573-279.595 422.144-279.595 66.347 0 132.267 15.147 193.28 45.013l117.888-117.845c7.665-7.41 18.12-11.977 29.641-11.977 23.564 0 42.667 19.103 42.667 42.667 0 11.521-4.567 21.976-11.989 29.653l-682.655 682.655zM640.597 195.072c-41.813-16.341-85.333-24.405-128.597-24.405-126.677 0-256.085 69.12-335.787 213.333 34.859 63.104 79.275 111.787 128.768 146.645l91.477-91.477c-7.91-16.158-12.536-35.161-12.536-55.245 0-70.692 57.308-128 128-128 20.084 0 39.088 4.626 56.004 12.87l-0.759-0.334 73.387-73.387zM791.552 303.104c20.608 23.723 39.509 50.645 56.235 80.896-79.701 144.213-209.067 213.333-335.787 213.333-4.779 0-9.557-0.085-14.336-0.299l-76.16 76.117c27.2 6.044 58.442 9.509 90.492 9.515h0.004c166.528 0 330.069-95.403 422.144-279.595 2.837-5.557 4.5-12.12 4.5-19.072s-1.663-13.515-4.612-19.314l0.112 0.242c-23.336-46.625-50.699-86.8-82.64-122.822l0.507 0.582-60.459 60.416z" />
<glyph unicode="&#xe952;" glyph-name="favorite" d="M512 789.333c16.603-0.009 30.988-9.501 38.032-23.352l0.112-0.243 110.080-220.075 241.92-35.157c20.779-3.102 36.535-20.823 36.535-42.224 0-11.98-4.938-22.807-12.889-30.557l-0.009-0.009-176.085-171.691 39.595-242.091c0.351-2.055 0.551-4.422 0.551-6.836 0-23.564-19.103-42.667-42.667-42.667-7.305 0-14.181 1.836-20.192 5.071l0.227-0.112-215.211 114.176-215.211-114.176c-5.784-3.123-12.66-4.959-19.965-4.959-23.564 0-42.667 19.103-42.667 42.667 0 2.414 0.2 4.781 0.586 7.086l-0.034-0.25 39.595 242.091-176.085 171.691c-7.96 7.759-12.898 18.585-12.898 30.566 0 21.401 15.756 39.122 36.301 42.195l0.234 0.029 241.92 35.157 110.080 220.075c7.156 14.094 21.541 23.586 38.143 23.595h0.001zM512 651.264l-81.835-163.669c-6.232-12.294-17.906-21.050-31.765-23.139l-0.235-0.029-178.517-25.941 130.133-126.848c7.957-7.758 12.892-18.583 12.892-30.56 0-2.437-0.204-4.826-0.597-7.152l0.035 0.251-29.312-179.072 159.189 84.48c5.795 3.139 12.688 4.984 20.011 4.984s14.215-1.845 20.237-5.095l-0.226 0.112 159.189-84.48-29.312 179.072c-0.354 2.063-0.556 4.44-0.556 6.864 0 11.975 4.933 22.797 12.878 30.546l0.009 0.009 130.133 126.891-178.475 25.941c-14.094 2.118-25.768 10.874-31.888 22.925l-0.112 0.243-81.877 163.669z" />
<glyph unicode="&#xe953;" glyph-name="filter" d="M384 682.667c-23.564 0-42.667-19.103-42.667-42.667s19.103-42.667 42.667-42.667v0c23.564 0 42.667 19.103 42.667 42.667s-19.103 42.667-42.667 42.667v0zM263.253 682.667c18.087 50.197 65.301 85.438 120.747 85.438s102.659-35.241 120.465-84.546l0.281-0.892h305.92c23.564 0 42.667-19.103 42.667-42.667s-19.103-42.667-42.667-42.667v0h-305.92c-18.087-50.197-65.301-85.438-120.747-85.438s-102.659 35.241-120.465 84.546l-0.281 0.892h-49.92c-23.564 0-42.667 19.103-42.667 42.667s19.103 42.667 42.667 42.667v0h49.92zM640 426.667c-23.564 0-42.667-19.103-42.667-42.667s19.103-42.667 42.667-42.667v0c23.564 0 42.667 19.103 42.667 42.667s-19.103 42.667-42.667 42.667v0zM519.253 426.667c18.087 50.197 65.301 85.438 120.747 85.438s102.659-35.241 120.465-84.546l0.281-0.892h49.92c23.564 0 42.667-19.103 42.667-42.667s-19.103-42.667-42.667-42.667v0h-49.92c-18.087-50.197-65.301-85.438-120.747-85.438s-102.659 35.241-120.465 84.546l-0.281 0.892h-305.92c-23.564 0-42.667 19.103-42.667 42.667s19.103 42.667 42.667 42.667v0h305.92zM384 170.667c-23.564 0-42.667-19.103-42.667-42.667s19.103-42.667 42.667-42.667v0c23.564 0 42.667 19.103 42.667 42.667s-19.103 42.667-42.667 42.667v0zM263.253 170.667c18.087 50.197 65.301 85.438 120.747 85.438s102.659-35.241 120.465-84.546l0.281-0.892h305.92c23.564 0 42.667-19.103 42.667-42.667s-19.103-42.667-42.667-42.667v0h-305.92c-18.087-50.197-65.301-85.438-120.747-85.438s-102.659 35.241-120.465 84.546l-0.281 0.892h-49.92c-23.564 0-42.667 19.103-42.667 42.667s19.103 42.667 42.667 42.667v0h49.92z" />
<glyph unicode="&#xe954;" glyph-name="filter-1" d="M170.667 597.333c0 23.564 19.103 42.667 42.667 42.667v0h597.333c23.564 0 42.667-19.103 42.667-42.667s-19.103-42.667-42.667-42.667v0h-597.333c-23.564 0-42.667 19.103-42.667 42.667v0zM256 384c0 23.564 19.103 42.667 42.667 42.667v0h426.667c23.564 0 42.667-19.103 42.667-42.667s-19.103-42.667-42.667-42.667v0h-426.667c-23.564 0-42.667 19.103-42.667 42.667v0zM341.333 170.667c0 23.564 19.103 42.667 42.667 42.667v0h256c23.564 0 42.667-19.103 42.667-42.667s-19.103-42.667-42.667-42.667v0h-256c-23.564 0-42.667 19.103-42.667 42.667v0z" />
<glyph unicode="&#xe955;" glyph-name="filter-alt" d="M170.667 597.333c0 23.564 19.103 42.667 42.667 42.667v0h597.333c23.564 0 42.667-19.103 42.667-42.667s-19.103-42.667-42.667-42.667v0h-597.333c-23.564 0-42.667 19.103-42.667 42.667v0zM256 384c0 23.564 19.103 42.667 42.667 42.667v0h426.667c23.564 0 42.667-19.103 42.667-42.667s-19.103-42.667-42.667-42.667v0h-426.667c-23.564 0-42.667 19.103-42.667 42.667v0zM341.333 170.667c0 23.564 19.103 42.667 42.667 42.667v0h256c23.564 0 42.667-19.103 42.667-42.667s-19.103-42.667-42.667-42.667v0h-256c-23.564 0-42.667 19.103-42.667 42.667v0z" />
<glyph unicode="&#xe956;" glyph-name="flag" d="M213.333 691.328c64.725 13.312 113.92 14.080 154.709 9.003 47.744-5.973 86.101-20.181 128.981-36.267l1.28-0.512c42.112-15.787 88.747-33.28 147.072-40.533 47.104-5.931 100.48-5.035 165.291 6.741v-382.421c-64.725-13.312-113.92-14.080-154.709-9.003-47.744 5.973-86.101 20.181-128.981 36.267l-1.28 0.512c-42.112 15.787-88.747 33.28-147.072 40.533-47.104 5.931-100.48 5.035-165.291-6.741v382.421zM843.008 724.053c-81.067-20.267-139.733-22.315-187.051-16.384-47.744 5.973-86.101 20.181-128.981 36.267l-1.28 0.512c-42.112 15.787-88.747 33.28-147.072 40.533-59.179 7.424-128.256 4.181-217.429-18.048-19.148-4.471-33.194-21.395-33.195-41.6v0-725.333c0-23.564 19.103-42.667 42.667-42.667s42.667 19.103 42.667 42.667v0 221.995c64.725 13.312 113.92 14.080 154.709 9.003 47.744-5.973 86.101-20.181 128.981-36.267l1.28-0.512c42.112-15.787 88.747-33.28 147.072-40.533 59.349-7.424 128.725-4.139 218.325 18.261 18.699 4.8 32.298 21.505 32.299 41.387v0 469.333c-0.007 23.559-19.107 42.655-42.667 42.655-3.667 0-7.225-0.463-10.621-1.332l0.296 0.064z" />
<glyph unicode="&#xe957;" glyph-name="fog" d="M469.333 640c0 23.564 19.103 42.667 42.667 42.667v0h384c23.564 0 42.667-19.103 42.667-42.667s-19.103-42.667-42.667-42.667v0h-384c-23.564 0-42.667 19.103-42.667 42.667v0zM85.333 469.333c0 23.564 19.103 42.667 42.667 42.667v0h469.333c23.564 0 42.667-19.103 42.667-42.667s-19.103-42.667-42.667-42.667v0h-469.333c-23.564 0-42.667 19.103-42.667 42.667v0zM213.333 341.333c-23.564 0-42.667-19.103-42.667-42.667s19.103-42.667 42.667-42.667v0h384c23.564 0 42.667 19.103 42.667 42.667s-19.103 42.667-42.667 42.667v0h-384zM725.333 341.333c-23.564 0-42.667-19.103-42.667-42.667s19.103-42.667 42.667-42.667v0h170.667c23.564 0 42.667 19.103 42.667 42.667s-19.103 42.667-42.667 42.667v0h-170.667zM725.333 512c-23.564 0-42.667-19.103-42.667-42.667s19.103-42.667 42.667-42.667v0h85.333c23.564 0 42.667 19.103 42.667 42.667s-19.103 42.667-42.667 42.667v0h-85.333zM298.667 128c0 23.564 19.103 42.667 42.667 42.667v0h469.333c23.564 0 42.667-19.103 42.667-42.667s-19.103-42.667-42.667-42.667v0h-469.333c-23.564 0-42.667 19.103-42.667 42.667v0zM128 170.667c-23.564 0-42.667-19.103-42.667-42.667s19.103-42.667 42.667-42.667v0h85.333c23.564 0 42.667 19.103 42.667 42.667s-19.103 42.667-42.667 42.667v0h-85.333zM213.333 682.667c-23.564 0-42.667-19.103-42.667-42.667s19.103-42.667 42.667-42.667v0h170.667c23.564 0 42.667 19.103 42.667 42.667s-19.103 42.667-42.667 42.667v0h-170.667z" />
<glyph unicode="&#xe958;" glyph-name="folder" d="M85.333 640c0 47.128 38.205 85.333 85.333 85.333v0h213.333c11.781-0.003 22.446-4.78 30.165-12.501l72.832-72.832h366.336c47.128 0 85.333-38.205 85.333-85.333v0-426.667c0-47.128-38.205-85.333-85.333-85.333v0h-682.667c-47.128 0-85.333 38.205-85.333 85.333v0 512zM366.336 640h-195.669v-512h682.667v426.667h-384c-11.781 0.003-22.446 4.78-30.165 12.501l-72.832 72.832z" />
<glyph unicode="&#xe959;" glyph-name="folder-add" d="M85.333 640c0 47.128 38.205 85.333 85.333 85.333v0h213.333c11.781-0.003 22.446-4.78 30.165-12.501l72.832-72.832h366.336c47.128 0 85.333-38.205 85.333-85.333v0-426.667c0-47.128-38.205-85.333-85.333-85.333v0h-682.667c-47.128 0-85.333 38.205-85.333 85.333v0 512zM366.336 640h-195.669v-512h682.667v426.667h-384c-11.781 0.003-22.446 4.78-30.165 12.501l-72.832 72.832zM512 469.333c23.564 0 42.667-19.103 42.667-42.667v0-42.667h42.667c23.564 0 42.667-19.103 42.667-42.667s-19.103-42.667-42.667-42.667v0h-42.667v-42.667c0-23.564-19.103-42.667-42.667-42.667s-42.667 19.103-42.667 42.667v0 42.667h-42.667c-23.564 0-42.667 19.103-42.667 42.667s19.103 42.667 42.667 42.667v0h42.667v42.667c0 23.564 19.103 42.667 42.667 42.667v0z" />
<glyph unicode="&#xe95a;" glyph-name="folder-check" d="M85.333 640c0 47.128 38.205 85.333 85.333 85.333v0h213.333c11.781-0.003 22.446-4.78 30.165-12.501l72.832-72.832h366.336c47.128 0 85.333-38.205 85.333-85.333v0-426.667c0-47.128-38.205-85.333-85.333-85.333v0h-682.667c-47.128 0-85.333 38.205-85.333 85.333v0 512zM366.336 640h-195.669v-512h682.667v426.667h-384c-11.781 0.003-22.446 4.78-30.165 12.501l-72.832 72.832zM670.165 456.832c7.718-7.721 12.492-18.386 12.492-30.165s-4.774-22.445-12.492-30.165l-170.667-170.667c-7.721-7.718-18.386-12.492-30.165-12.492s-22.445 4.774-30.165 12.492l-85.333 85.333c-8.036 7.769-13.026 18.647-13.026 30.69 0 23.564 19.103 42.667 42.667 42.667 12.043 0 22.92-4.989 30.678-13.014l55.18-55.18 140.501 140.501c7.721 7.718 18.386 12.492 30.165 12.492s22.445-4.774 30.165-12.492v0z" />
<glyph unicode="&#xe95b;" glyph-name="folder-download" d="M85.333 640c0 47.128 38.205 85.333 85.333 85.333v0h213.333c11.781-0.003 22.446-4.78 30.165-12.501l72.832-72.832h366.336c47.128 0 85.333-38.205 85.333-85.333v0-426.667c0-47.128-38.205-85.333-85.333-85.333v0h-682.667c-47.128 0-85.333 38.205-85.333 85.333v0 512zM366.336 640h-195.669v-512h682.667v426.667h-384c-11.781 0.003-22.446 4.78-30.165 12.501l-72.832 72.832zM512 490.667c23.564 0 42.667-19.103 42.667-42.667v0-110.336l12.501 12.501c7.665 7.41 18.12 11.977 29.641 11.977 23.564 0 42.667-19.103 42.667-42.667 0-11.521-4.567-21.976-11.989-29.653l-85.321-85.321c-7.721-7.718-18.386-12.492-30.165-12.492s-22.445 4.774-30.165 12.492l-85.333 85.333c-8.036 7.769-13.026 18.647-13.026 30.69 0 23.564 19.103 42.667 42.667 42.667 12.043 0 22.92-4.989 30.678-13.014l12.513-12.513v110.336c0 23.564 19.103 42.667 42.667 42.667v0z" />
<glyph unicode="&#xe95c;" glyph-name="folder-remove" d="M85.333 640c0 47.128 38.205 85.333 85.333 85.333v0h213.333c11.781-0.003 22.446-4.78 30.165-12.501l72.832-72.832h366.336c47.128 0 85.333-38.205 85.333-85.333v0-426.667c0-47.128-38.205-85.333-85.333-85.333v0h-682.667c-47.128 0-85.333 38.205-85.333 85.333v0 512zM366.336 640h-195.669v-512h682.667v426.667h-384c-11.781 0.003-22.446 4.78-30.165 12.501l-72.832 72.832zM384 341.333c0 23.564 19.103 42.667 42.667 42.667v0h170.667c23.564 0 42.667-19.103 42.667-42.667s-19.103-42.667-42.667-42.667v0h-170.667c-23.564 0-42.667 19.103-42.667 42.667v0z" />
<glyph unicode="&#xe95d;" glyph-name="grid" d="M128 682.667c0 47.128 38.205 85.333 85.333 85.333v0h170.667c47.128 0 85.333-38.205 85.333-85.333v0-170.667c0-47.128-38.205-85.333-85.333-85.333v0h-170.667c-47.128 0-85.333 38.205-85.333 85.333v0 170.667zM384 682.667h-170.667v-170.667h170.667v170.667zM554.667 682.667c0 47.128 38.205 85.333 85.333 85.333v0h170.667c47.128 0 85.333-38.205 85.333-85.333v0-170.667c0-47.128-38.205-85.333-85.333-85.333v0h-170.667c-47.128 0-85.333 38.205-85.333 85.333v0 170.667zM810.667 682.667h-170.667v-170.667h170.667v170.667zM128 256c0 47.128 38.205 85.333 85.333 85.333v0h170.667c47.128 0 85.333-38.205 85.333-85.333v0-170.667c0-47.128-38.205-85.333-85.333-85.333v0h-170.667c-47.128 0-85.333 38.205-85.333 85.333v0 170.667zM384 256h-170.667v-170.667h170.667v170.667zM554.667 256c0 47.128 38.205 85.333 85.333 85.333v0h170.667c47.128 0 85.333-38.205 85.333-85.333v0-170.667c0-47.128-38.205-85.333-85.333-85.333v0h-170.667c-47.128 0-85.333 38.205-85.333 85.333v0 170.667zM810.667 256h-170.667v-170.667h170.667v170.667z" />
<glyph unicode="&#xe95e;" glyph-name="heart" d="M512 702.805c-45.114 40.583-105.112 65.404-170.907 65.404-141.385 0-256-114.615-256-256 0-70.804 28.745-134.895 75.201-181.239l291.376-291.333c15.441-15.437 36.771-24.984 60.331-24.984s44.889 9.548 60.331 24.985l291.37 291.328c46.461 46.349 75.206 110.44 75.206 181.244 0 141.385-114.615 256-256 256-65.795 0-125.793-24.821-171.141-65.611l0.233 0.206zM461.995 632.661l19.84-19.797c7.721-7.718 18.386-12.492 30.165-12.492s22.445 4.774 30.165 12.492v0l19.84 19.797c31.078 32.145 74.587 52.103 122.759 52.103 94.257 0 170.667-76.41 170.667-170.667 0-48.171-19.957-91.681-52.055-122.712l-0.048-0.046-291.328-291.371-291.328 291.371c-29.642 30.66-47.908 72.479-47.908 118.564 0 94.257 76.41 170.667 170.667 170.667 46.085 0 87.904-18.266 118.612-47.954l-0.048 0.046z" />
<glyph unicode="&#xe95f;" glyph-name="home" d="M483.669 799.872c7.497 6.681 17.437 10.763 28.331 10.763s20.833-4.082 28.373-10.801l-0.042 0.037 384-341.333c8.188-7.789 13.281-18.767 13.281-30.934 0-23.564-19.103-42.667-42.667-42.667-10.404 0-19.939 3.724-27.343 9.912l0.068-0.055-14.336 12.672v-322.133c0-47.128-38.205-85.333-85.333-85.333v0h-512c-47.128 0-85.333 38.205-85.333 85.333v0 322.133l-14.336-12.672c-7.337-6.133-16.871-9.857-27.275-9.857-23.564 0-42.667 19.103-42.667 42.667 0 12.167 5.093 23.145 13.263 30.917l0.018 0.017 384 341.333zM256 483.413v-398.080h128v213.333c0 23.564 19.103 42.667 42.667 42.667v0h170.667c23.564 0 42.667-19.103 42.667-42.667v0-213.333h128v398.037l-256 227.541-256-227.541zM554.667 85.333v170.667h-85.333v-170.667h85.333z" />
<glyph unicode="&#xe960;" glyph-name="image" d="M661.333 469.333c35.346 0 64 28.654 64 64s-28.654 64-64 64v0c-35.346 0-64-28.654-64-64s28.654-64 64-64v0zM128 682.667c0 47.128 38.205 85.333 85.333 85.333v0h597.333c47.128 0 85.333-38.205 85.333-85.333v0-597.333c0-47.128-38.205-85.333-85.333-85.333v0h-597.333c-47.128 0-85.333 38.205-85.333 85.333v0 597.333zM810.667 682.667h-597.333v-337.92l144 115.2c7.235 5.831 16.539 9.36 26.667 9.36s19.432-3.529 26.749-9.424l-0.082 0.064 183.467-146.773 58.368 58.325c7.721 7.718 18.386 12.492 30.165 12.492s22.445-4.774 30.165-12.492l97.835-97.835v409.003zM213.333 85.333h597.333v67.669l-128 128-55.168-55.168c-7.722-7.727-18.393-12.506-30.179-12.506-10.122 0-19.42 3.524-26.735 9.413l0.082-0.064-186.667 149.376-170.667-136.533v-150.187z" />
<glyph unicode="&#xe961;" glyph-name="inbox" d="M128 682.667c0 47.128 38.205 85.333 85.333 85.333v0h597.333c47.128 0 85.333-38.205 85.333-85.333v0-597.333c0-47.128-38.205-85.333-85.333-85.333v0h-597.333c-47.128 0-85.333 38.205-85.333 85.333v0 597.333zM213.333 298.667v-213.333h597.333v213.333h-97.28l-32.896-98.816c-5.82-17.101-21.739-29.184-40.48-29.184-0.004 0-0.007 0-0.011 0h-255.999c-0.003 0-0.007 0-0.010 0-18.741 0-34.66 12.083-40.391 28.884l-0.089 0.3-32.896 98.816h-97.28zM810.667 384v298.667h-597.333v-298.667h97.28c37.463-0.004 69.286-24.148 80.76-57.725l0.178-0.601 23.168-69.675h194.475l23.211 69.675c11.654 34.18 43.48 58.325 80.947 58.325 0.027 0 0.054 0 0.082 0h97.233z" />
<glyph unicode="&#xe962;" glyph-name="italic" d="M598.229 725.333h212.437c23.564 0 42.667-19.103 42.667-42.667s-19.103-42.667-42.667-42.667v0h-181.163l-146.261-512h156.757c23.564 0 42.667-19.103 42.667-42.667s-19.103-42.667-42.667-42.667v0h-426.667c-23.564 0-42.667 19.103-42.667 42.667s19.103 42.667 42.667 42.667v0h181.163l146.261 512h-156.757c-23.564 0-42.667 19.103-42.667 42.667s19.103 42.667 42.667 42.667v0h214.229z" />
<glyph unicode="&#xe963;" glyph-name="laptop" d="M85.333 682.667c0 47.128 38.205 85.333 85.333 85.333v0h682.667c47.128 0 85.333-38.205 85.333-85.333v0-469.333c0-47.128-38.205-85.333-85.333-85.333v0h-682.667c-47.128 0-85.333 38.205-85.333 85.333v0 469.333zM853.333 682.667h-682.667v-469.333h682.667v469.333zM938.667 42.667c0-23.564-19.103-42.667-42.667-42.667v0h-768c-23.564 0-42.667 19.103-42.667 42.667s19.103 42.667 42.667 42.667v0h768c23.564 0 42.667-19.103 42.667-42.667v0z" />
<glyph unicode="&#xe964;" glyph-name="layers" d="M491.264 805.291c5.975 3.384 13.123 5.378 20.736 5.378s14.761-1.994 20.949-5.488l-0.213 0.111 384-213.333c13.18-7.431 21.934-21.339 21.934-37.291s-8.754-29.86-21.721-37.18l-0.213-0.111-384-213.333c-5.975-3.384-13.123-5.378-20.736-5.378s-14.761 1.994-20.949 5.488l0.213-0.111-384 213.333c-13.18 7.431-21.934 21.339-21.934 37.291s8.754 29.86 21.721 37.18l0.213 0.111 384 213.333zM215.893 554.667l296.107-164.523 296.107 164.523-296.107 164.523-296.107-164.523zM90.709 404.736c7.431 13.179 21.338 21.933 37.29 21.933 7.614 0 14.761-1.994 20.95-5.489l-0.213 0.111 363.264-201.813 363.264 201.813c5.975 3.384 13.123 5.378 20.736 5.378 23.565 0 42.668-19.103 42.668-42.668 0-15.952-8.754-29.859-21.719-37.18l-0.213-0.111-384-213.333c-5.975-3.384-13.123-5.378-20.736-5.378s-14.761 1.994-20.949 5.488l0.213-0.111-384 213.333c-13.179 7.431-21.933 21.338-21.933 37.29 0 7.614 1.994 14.761 5.489 20.95l-0.111-0.213zM90.709 234.069c7.431 13.179 21.338 21.933 37.29 21.933 7.614 0 14.761-1.994 20.95-5.489l-0.213 0.111 363.264-201.813 363.264 201.813c5.975 3.384 13.123 5.378 20.736 5.378 23.565 0 42.668-19.103 42.668-42.668 0-15.952-8.754-29.859-21.719-37.18l-0.213-0.111-384-213.333c-5.975-3.384-13.123-5.378-20.736-5.378s-14.761 1.994-20.949 5.488l0.213-0.111-384 213.333c-13.179 7.431-21.933 21.338-21.933 37.29 0 7.614 1.994 14.761 5.489 20.95l-0.111-0.213z" />
<glyph unicode="&#xe965;" glyph-name="layout" d="M85.333 682.667c0 47.128 38.205 85.333 85.333 85.333v0h682.667c47.128 0 85.333-38.205 85.333-85.333v0-597.333c0-47.128-38.205-85.333-85.333-85.333v0h-683.221c-46.889 0.315-84.779 38.398-84.779 85.332 0 0.001 0 0.001 0 0.002v0 597.333zM170.667 512h682.667v170.667h-682.667v-170.667zM341.333 426.667h-170.667v-341.333h170.667v341.333zM426.667 85.333h426.667v341.333h-426.667v-341.333z" />
<glyph unicode="&#xe966;" glyph-name="link" d="M341.333 554.667c-95.915 0-170.667-74.752-170.667-170.667s74.752-170.667 170.667-170.667h85.333c23.564 0 42.667-19.103 42.667-42.667s-19.103-42.667-42.667-42.667v0h-85.333c-143.019 0-256 112.981-256 256s112.981 256 256 256h85.333c23.564 0 42.667-19.103 42.667-42.667s-19.103-42.667-42.667-42.667v0h-85.333zM554.667 597.333c0 23.564 19.103 42.667 42.667 42.667v0h85.333c143.019 0 256-112.981 256-256s-112.981-256-256-256h-85.333c-23.564 0-42.667 19.103-42.667 42.667s19.103 42.667 42.667 42.667v0h85.333c95.915 0 170.667 74.752 170.667 170.667s-74.752 170.667-170.667 170.667h-85.333c-23.564 0-42.667 19.103-42.667 42.667v0zM298.667 384c0 23.564 19.103 42.667 42.667 42.667v0h341.333c23.564 0 42.667-19.103 42.667-42.667s-19.103-42.667-42.667-42.667v0h-341.333c-23.564 0-42.667 19.103-42.667 42.667v0z" />
<glyph unicode="&#xe967;" glyph-name="link-alt" d="M691.2 640c0 23.564 19.103 42.667 42.667 42.667v0c27.179 0 53.845-5.461 79.829-15.872 28.288-11.307 50.048-28.075 69.803-47.787 19.755-19.797 36.523-41.557 47.829-69.845 10.411-25.984 15.872-52.651 15.872-79.829s-5.461-53.845-15.872-79.829c-11.136-27.947-27.648-49.493-47.104-69.077l-41.984-46.208c-0.472-0.51-0.932-0.983-1.402-1.444l-136.539-136.539c-19.755-19.755-41.515-36.523-69.803-47.872-23.601-9.897-51.020-15.702-79.779-15.829h-0.050c-28.815 0.142-56.231 5.962-81.243 16.395l1.413-0.523c-28.288 11.307-50.048 28.075-69.803 47.787-19.755 19.797-36.523 41.557-47.829 69.845-10.048 24.263-15.882 52.44-15.882 81.98 0 0.744 0.004 1.487 0.011 2.23l-0.001-0.114c0 27.179 5.461 53.845 15.872 79.829 11.307 28.288 28.075 50.048 47.787 69.803l46.933 46.933c7.724 7.729 18.397 12.51 30.187 12.51 23.569 0 42.675-19.106 42.675-42.675 0-11.779-4.772-22.444-12.489-30.166l-46.933-46.933c-14.379-14.379-23.211-26.752-28.928-41.131-6.052-14.225-9.63-30.761-9.77-48.116v-0.054c0-20.309 3.285-36.267 9.771-52.437 5.717-14.379 14.549-26.752 28.928-41.131s26.752-23.211 41.131-28.928c16.683-6.699 32.683-9.771 48.171-9.771s31.488 3.072 48.171 9.771c14.379 5.717 26.752 14.549 41.131 28.928l135.808 135.808 41.984 46.208c0.472 0.51 0.932 0.983 1.402 1.444l0.006 0.006c14.379 14.379 23.211 26.752 28.928 41.131 6.699 16.683 9.771 32.683 9.771 48.171s-3.072 31.488-9.771 48.171c-5.717 14.379-14.549 26.752-28.928 41.131s-26.752 23.211-41.131 28.971c-14.228 6.038-30.766 9.602-48.122 9.728h-0.049c-23.564 0-42.667 19.103-42.667 42.667v0zM482.133 576c-15.488 0-31.488-3.072-48.171-9.728-14.379-5.76-26.752-14.592-41.131-29.013l-140.075-140.032-41.984-46.208-1.408-1.451c-14.379-14.379-23.211-26.752-28.971-41.131-6.038-14.228-9.602-30.766-9.728-48.122v-0.049c0-15.488 3.072-31.488 9.728-48.171 5.76-14.379 14.592-26.752 29.013-41.131 14.336-14.379 26.709-23.211 41.088-28.971 16.683-6.656 32.683-9.728 48.171-9.728 23.564 0 42.667-19.103 42.667-42.667s-19.103-42.667-42.667-42.667v0c-28.81 0.127-56.229 5.932-81.244 16.352l1.414-0.522c-28.288 11.349-50.048 28.117-69.803 47.872s-36.523 41.515-47.829 69.803c-9.91 23.598-15.73 51.014-15.872 79.774v0.056c0 27.179 5.461 53.845 15.872 79.829 11.136 27.947 27.648 49.493 47.104 69.077l41.984 46.208 1.408 1.451 140.8 140.8c19.755 19.755 41.515 36.523 69.803 47.829 23.598 9.91 51.014 15.73 79.774 15.872h0.056c27.179 0 53.845-5.461 79.829-15.872 28.288-11.307 50.048-28.075 69.803-47.787 19.755-19.797 36.523-41.557 47.829-69.845 10.411-25.984 15.872-52.651 15.872-79.829s-5.461-53.845-15.872-79.829c-11.179-27.947-27.691-49.579-47.147-69.12l-46.336-50.56c-7.826-8.512-19.015-13.827-31.445-13.827-23.566 0-42.67 19.104-42.67 42.67 0 11.136 4.266 21.275 11.252 28.873l-0.028-0.031 46.933 51.2 1.28 1.323c14.379 14.379 23.211 26.752 28.928 41.131 6.699 16.683 9.771 32.683 9.771 48.171s-3.072 31.488-9.771 48.171c-5.717 14.379-14.549 26.752-28.928 41.131s-26.752 23.211-41.131 28.971c-14.228 6.038-30.766 9.602-48.122 9.728h-0.049z" />
<glyph unicode="&#xe968;" glyph-name="list" d="M170.667 597.333c0 23.564 19.103 42.667 42.667 42.667v0h42.667c23.564 0 42.667-19.103 42.667-42.667s-19.103-42.667-42.667-42.667v0h-42.667c-23.564 0-42.667 19.103-42.667 42.667v0zM384 597.333c0 23.564 19.103 42.667 42.667 42.667v0h384c23.564 0 42.667-19.103 42.667-42.667s-19.103-42.667-42.667-42.667v0h-384c-23.564 0-42.667 19.103-42.667 42.667v0zM170.667 384c0 23.564 19.103 42.667 42.667 42.667v0h42.667c23.564 0 42.667-19.103 42.667-42.667s-19.103-42.667-42.667-42.667v0h-42.667c-23.564 0-42.667 19.103-42.667 42.667v0zM384 384c0 23.564 19.103 42.667 42.667 42.667v0h384c23.564 0 42.667-19.103 42.667-42.667s-19.103-42.667-42.667-42.667v0h-384c-23.564 0-42.667 19.103-42.667 42.667v0zM170.667 170.667c0 23.564 19.103 42.667 42.667 42.667v0h42.667c23.564 0 42.667-19.103 42.667-42.667s-19.103-42.667-42.667-42.667v0h-42.667c-23.564 0-42.667 19.103-42.667 42.667v0zM384 170.667c0 23.564 19.103 42.667 42.667 42.667v0h384c23.564 0 42.667-19.103 42.667-42.667s-19.103-42.667-42.667-42.667v0h-384c-23.564 0-42.667 19.103-42.667 42.667v0z" />
<glyph unicode="&#xe969;" glyph-name="location" d="M512 810.667c-187.733 0-341.333-153.6-341.333-341.333 0-230.4 298.667-490.667 311.467-503.467 8.533-4.267 21.333-8.533 29.867-8.533s21.333 4.267 29.867 8.533c12.8 12.8 311.467 273.067 311.467 503.467 0 187.733-153.6 341.333-341.333 341.333zM512 55.467c-89.6 85.333-256 268.8-256 413.867 0 140.8 115.2 256 256 256s256-115.2 256-256-166.4-328.533-256-413.867zM512 640c-93.867 0-170.667-76.8-170.667-170.667s76.8-170.667 170.667-170.667 170.667 76.8 170.667 170.667-76.8 170.667-170.667 170.667zM512 384c-46.933 0-85.333 38.4-85.333 85.333s38.4 85.333 85.333 85.333 85.333-38.4 85.333-85.333-38.4-85.333-85.333-85.333z" />
<glyph unicode="&#xe96a;" glyph-name="lock" d="M512 725.333c70.315 0 128-57.685 128-128v-128h-256v128c0 70.315 57.685 128 128 128zM725.333 469.333v128c0 117.419-95.915 213.333-213.333 213.333s-213.333-95.915-213.333-213.333v-128h-42.667c-47.128 0-85.333-38.205-85.333-85.333v0-341.333c0-47.128 38.205-85.333 85.333-85.333v0h512c47.128 0 85.333 38.205 85.333 85.333v0 341.333c0 47.128-38.205 85.333-85.333 85.333v0h-42.667zM256 384h512v-341.333h-512v341.333z" />
<glyph unicode="&#xe96b;" glyph-name="log-in" d="M597.333 85.333c-23.564 0-42.667-19.103-42.667-42.667s19.103-42.667 42.667-42.667v0h213.333c47.128 0 85.333 38.205 85.333 85.333v0 597.333c0 47.128-38.205 85.333-85.333 85.333v0h-213.333c-23.564 0-42.667-19.103-42.667-42.667s19.103-42.667 42.667-42.667v0h213.333v-597.333h-213.333zM670.464 354.133c7.53 7.65 12.185 18.149 12.203 29.735v0.26c-0.024 11.737-4.798 22.355-12.5 30.036l-170.668 170.668c-7.769 8.036-18.647 13.026-30.69 13.026-23.564 0-42.667-19.103-42.667-42.667 0-12.043 4.989-22.92 13.014-30.678l97.847-97.847h-409.003c-23.564 0-42.667-19.103-42.667-42.667s19.103-42.667 42.667-42.667v0h409.003l-97.835-97.835c-8.036-7.769-13.026-18.647-13.026-30.69 0-23.564 19.103-42.667 42.667-42.667 12.043 0 22.92 4.989 30.678 13.014l170.977 170.977z" />
<glyph unicode="&#xe96c;" glyph-name="log-out" d="M469.333 42.667c0 23.564-19.103 42.667-42.667 42.667v0h-213.333v597.333h213.333c23.564 0 42.667 19.103 42.667 42.667s-19.103 42.667-42.667 42.667v0h-213.333c-47.128 0-85.333-38.205-85.333-85.333v0-597.333c0-47.128 38.205-85.333 85.333-85.333v0h213.333c23.564 0 42.667 19.103 42.667 42.667v0zM926.464 354.133c7.53 7.65 12.185 18.149 12.203 29.735v0.26c-0.024 11.737-4.798 22.355-12.5 30.036l-170.668 170.668c-7.769 8.036-18.647 13.026-30.69 13.026-23.564 0-42.667-19.103-42.667-42.667 0-12.043 4.989-22.92 13.014-30.678l97.847-97.847h-409.003c-23.564 0-42.667-19.103-42.667-42.667s19.103-42.667 42.667-42.667v0h409.003l-97.835-97.835c-7.41-7.665-11.977-18.12-11.977-29.641 0-23.564 19.103-42.667 42.667-42.667 11.521 0 21.976 4.567 29.653 11.989l170.953 170.953z" />
<glyph unicode="&#xe96d;" glyph-name="map" d="M370.517 765.824c4.023 1.386 8.66 2.186 13.483 2.186s9.459-0.8 13.783-2.275l-0.3 0.089 242.517-80.853 186.325 62.123c8.059 2.781 17.346 4.387 27.008 4.387 47.126 0 85.329-38.201 85.333-85.325v0-507.435c0-0.010 0-0.023 0-0.035 0-37.466-24.146-69.293-57.725-80.768l-0.6-0.178-226.859-75.605c-4.023-1.386-8.66-2.186-13.483-2.186s-9.459 0.8-13.783 2.275l0.3-0.089-242.517 80.896-186.368-62.123c-8.047-2.772-17.319-4.373-26.965-4.373-47.12 0-85.321 38.192-85.333 85.31v507.436c0 0.006 0 0.013 0 0.021 0 37.482 24.166 69.32 57.767 80.783l0.601 0.178 226.816 75.605zM426.667 158.72l170.667-56.917v507.477l-170.667 56.917v-507.477zM341.333 666.155l-170.667-56.917v-507.392l170.667 56.917v507.392zM682.667 609.237v-507.392l170.667 56.917v507.392l-170.667-56.917z" />
<glyph unicode="&#xe96e;" glyph-name="megaphone" d="M746.752 804.907c12.795-7.526 21.248-21.226 21.248-36.901 0-0.002 0-0.004 0-0.006v0-170.667c0.055 0 0.12 0 0.185 0 50.403 0 95.69-21.904 126.861-56.713l0.143-0.162c26.978-29.993 43.477-69.879 43.477-113.619 0-0.061 0-0.122 0-0.183v0.010c0-43.691-16.469-83.627-43.477-113.792-31.335-34.972-76.64-56.875-127.061-56.875-0.045 0-0.090 0-0.135 0h0.007v-170.667c-0.008-23.558-19.107-42.653-42.667-42.653-7.786 0-15.084 2.085-21.367 5.728l0.205-0.11-277.504 158.549v-206.848c0-23.564-19.103-42.667-42.667-42.667v0h-170.667c-23.564 0-42.667 19.103-42.667 42.667v0 213.333c-47.128 0-85.333 38.205-85.333 85.333v0 256c0 47.128 38.205 85.333 85.333 85.333v0h244.651l288.853 165.035c6.083 3.539 13.387 5.628 21.18 5.628 7.883 0 15.266-2.138 21.602-5.865l-0.2 0.109zM426.667 298.667c7.787-0.005 15.085-2.094 21.367-5.741l-0.204 0.109 234.837-134.187v535.637l-234.837-134.187c-6.078-3.538-13.376-5.627-21.161-5.632h-256.001v-256h256zM256 213.333v-170.667h85.333v170.667h-85.333zM768 341.333c25.259 0 47.915 10.923 63.616 28.459 13.525 15.104 21.717 34.987 21.717 56.875s-8.192 41.771-21.717 56.875c-15.643 17.497-38.283 28.459-63.483 28.459-0.047 0-0.094 0-0.14 0h0.007v-170.667z" />
<glyph unicode="&#xe96f;" glyph-name="menu" d="M170.667 597.333c0 23.564 19.103 42.667 42.667 42.667v0h597.333c23.564 0 42.667-19.103 42.667-42.667s-19.103-42.667-42.667-42.667v0h-597.333c-23.564 0-42.667 19.103-42.667 42.667v0zM170.667 384c0 23.564 19.103 42.667 42.667 42.667v0h597.333c23.564 0 42.667-19.103 42.667-42.667s-19.103-42.667-42.667-42.667v0h-597.333c-23.564 0-42.667 19.103-42.667 42.667v0zM170.667 170.667c0 23.564 19.103 42.667 42.667 42.667v0h597.333c23.564 0 42.667-19.103 42.667-42.667s-19.103-42.667-42.667-42.667v0h-597.333c-23.564 0-42.667 19.103-42.667 42.667v0z" />
<glyph unicode="&#xe970;" glyph-name="message" d="M85.333 640c0 47.128 38.205 85.333 85.333 85.333v0h682.667c47.128 0 85.333-38.205 85.333-85.333v0-469.333c0-47.128-38.205-85.333-85.333-85.333v0h-195.669l-115.499-115.499c-7.721-7.718-18.386-12.492-30.165-12.492s-22.445 4.774-30.165 12.492l-115.499 115.499h-195.669c-47.128 0-85.333 38.205-85.333 85.333v0 469.333zM853.333 640h-682.667v-469.333h213.333c11.781-0.003 22.446-4.78 30.165-12.501l97.835-97.835 97.835 97.835c7.719 7.722 18.384 12.499 30.165 12.501h213.334v469.333zM256 490.667c0 23.564 19.103 42.667 42.667 42.667v0h426.667c23.564 0 42.667-19.103 42.667-42.667s-19.103-42.667-42.667-42.667v0h-426.667c-23.564 0-42.667 19.103-42.667 42.667v0zM256 320c0 23.564 19.103 42.667 42.667 42.667v0h256c23.564 0 42.667-19.103 42.667-42.667s-19.103-42.667-42.667-42.667v0h-256c-23.564 0-42.667 19.103-42.667 42.667v0z" />
<glyph unicode="&#xe971;" glyph-name="message-alt" d="M85.333 640c0 47.128 38.205 85.333 85.333 85.333v0h682.667c47.128 0 85.333-38.205 85.333-85.333v0-469.333c0-47.128-38.205-85.333-85.333-85.333v0h-195.669l-115.499-115.499c-7.721-7.718-18.386-12.492-30.165-12.492s-22.445 4.774-30.165 12.492l-115.499 115.499h-195.669c-47.128 0-85.333 38.205-85.333 85.333v0 469.333zM853.333 640h-682.667v-469.333h213.333c11.781-0.003 22.446-4.78 30.165-12.501l97.835-97.835 97.835 97.835c7.719 7.722 18.384 12.499 30.165 12.501h213.334v469.333zM576 405.333c0-35.346-28.654-64-64-64s-64 28.654-64 64v0c0 35.346 28.654 64 64 64s64-28.654 64-64v0zM746.667 405.333c0-35.346-28.654-64-64-64s-64 28.654-64 64v0c0 35.346 28.654 64 64 64s64-28.654 64-64v0zM405.333 405.333c0-35.346-28.654-64-64-64s-64 28.654-64 64v0c0 35.346 28.654 64 64 64s64-28.654 64-64v0z" />
<glyph unicode="&#xe972;" glyph-name="minimize" d="M926.165 737.835c7.41 7.665 11.977 18.12 11.977 29.641 0 23.564-19.103 42.667-42.667 42.667-11.521 0-21.976-4.567-29.653-11.989l-183.156-183.156v67.669c0 23.564-19.103 42.667-42.667 42.667s-42.667-19.103-42.667-42.667v0-170.667c0-23.564 19.103-42.667 42.667-42.667v0h170.667c23.564 0 42.667 19.103 42.667 42.667s-19.103 42.667-42.667 42.667v0h-67.669l183.168 183.168zM97.835-30.165c-7.718 7.721-12.492 18.386-12.492 30.165s4.774 22.445 12.492 30.165l183.168 183.168h-67.669c-23.564 0-42.667 19.103-42.667 42.667s19.103 42.667 42.667 42.667v0h170.667c23.564 0 42.667-19.103 42.667-42.667v0-170.667c0-23.564-19.103-42.667-42.667-42.667s-42.667 19.103-42.667 42.667v0 67.669l-183.168-183.168c-7.721-7.718-18.386-12.492-30.165-12.492s-22.445 4.774-30.165 12.492v0z" />
<glyph unicode="&#xe973;" glyph-name="mobile" d="M256 682.667c0 47.128 38.205 85.333 85.333 85.333v0h341.333c47.128 0 85.333-38.205 85.333-85.333v0-597.333c0-47.128-38.205-85.333-85.333-85.333v0h-341.333c-47.128 0-85.333 38.205-85.333 85.333v0 597.333zM682.667 682.667h-341.333v-597.333h341.333v597.333zM554.667 170.667c0-23.564-19.103-42.667-42.667-42.667s-42.667 19.103-42.667 42.667v0c0 23.564 19.103 42.667 42.667 42.667s42.667-19.103 42.667-42.667v0z" />
<glyph unicode="&#xe974;" glyph-name="moon" d="M399.36 755.499c7.739-7.724 12.526-18.402 12.526-30.199 0-6.989-1.68-13.585-4.659-19.407l0.112 0.241c-21.367-41.587-33.892-90.741-33.892-142.82 0-175.553 142.314-317.867 317.867-317.867 52.079 0 101.233 12.525 144.615 34.726l-1.795-0.834c5.589 2.877 12.196 4.563 19.198 4.563 23.564 0 42.667-19.103 42.667-42.667 0-7.001-1.686-13.608-4.675-19.438l0.112 0.24c-67.85-132.661-203.573-221.899-360.139-221.899-222.681 0-403.2 180.519-403.2 403.2 0 156.566 89.238 292.289 219.625 359.081l2.274 1.058c5.588 2.876 12.195 4.561 19.195 4.561 11.804 0 22.488-4.793 30.212-12.539l0.001-0.001zM291.115 611.413c-48.074-55.386-77.372-128.196-77.372-207.85 0-175.553 142.314-317.867 317.867-317.867 79.632 0 152.425 29.282 208.198 77.667l-0.394-0.334c-14.427-1.83-31.121-2.874-48.058-2.874-222.681 0-403.2 180.519-403.2 403.2 0 16.937 1.044 33.631 3.072 50.019l-0.198-1.961z" />
<glyph unicode="&#xe975;" glyph-name="next" d="M213.333 564.651c0 66.304 72.363 107.307 129.237 73.173l301.056-180.651c55.253-33.152 55.253-113.195 0-146.347l-301.013-180.651c-56.875-34.133-129.237 6.827-129.237 73.173v361.301zM599.723 384l-301.056 180.651v-361.301l301.056 180.651zM768 640c23.564 0 42.667-19.103 42.667-42.667v0-426.667c0-23.564-19.103-42.667-42.667-42.667s-42.667 19.103-42.667 42.667v0 426.667c0 23.564 19.103 42.667 42.667 42.667v0z" />
<glyph unicode="&#xe976;" glyph-name="notification" d="M432.896 757.419c13.007 31.536 43.511 53.328 79.104 53.328s66.097-21.792 78.897-52.761l0.207-0.567c127.591-35.927 219.557-151.266 219.563-288.085v0-200.405l78.165-117.248c4.494-6.653 7.174-14.854 7.174-23.68 0-23.564-19.103-42.667-42.667-42.667-0.002 0-0.005 0-0.007 0h-193.493c-10.816-72.795-72.88-128.010-147.84-128.010s-137.024 55.215-147.74 127.192l-0.1 0.818h-193.493c-0.002 0-0.004 0-0.006 0-23.564 0-42.667 19.103-42.667 42.667 0 8.826 2.68 17.027 7.271 23.832l-0.096-0.152 78.165 117.248v200.405c0 137.557 93.013 253.44 219.563 288.085zM451.669 85.333c9.042-25.088 32.64-42.701 60.352-42.701s51.31 17.613 60.211 42.255l0.141 0.446h-120.747zM512 682.667c-117.821 0-213.333-95.513-213.333-213.333v0-213.333c0-0.003 0-0.006 0-0.010 0-8.822-2.678-17.019-7.264-23.822l0.096 0.152-41.088-61.653h523.136l-41.088 61.653c-4.464 6.638-7.125 14.811-7.125 23.606 0 0.026 0 0.052 0 0.078v-0.004 213.333c0 117.821-95.513 213.333-213.333 213.333v0z" />
<glyph unicode="&#xe977;" glyph-name="notification-off" d="M810.667 469.333c0 137.557-93.013 253.44-219.563 288.085-13.007 31.536-43.511 53.328-79.104 53.328s-66.097-21.792-78.897-52.761l-0.207-0.567c-25.779-7.172-48.267-16.707-69.155-28.711l1.443 0.765 63.659-63.616c24.539 10.668 53.123 16.875 83.157 16.875 117.821 0 213.333-95.513 213.333-213.333 0-0.023 0-0.045 0-0.068v0.003-99.968l85.333-85.333v185.301zM135.467 152.149l77.867 116.779v200.405c0 44.8 9.856 87.296 27.563 125.44l-100.395 100.395c-8.036 7.769-13.026 18.647-13.026 30.69 0 23.564 19.103 42.667 42.667 42.667 12.043 0 22.92-4.989 30.678-13.014l682.679-682.679c7.41-7.665 11.977-18.12 11.977-29.641 0-23.564-19.103-42.667-42.667-42.667-11.521 0-21.976 4.567-29.653 11.989l-72.82 72.82h-90.496c-10.682-72.914-72.797-128.267-147.84-128.267s-137.158 55.353-147.742 127.457l-0.098 0.811h-192.939c-0.196-0.003-0.427-0.005-0.659-0.005-9.996 0-19.185 3.458-26.435 9.244l0.085-0.066c-9.925 7.875-16.233 19.937-16.233 33.472 0 9.018 2.8 17.382 7.579 24.269l-0.092-0.141zM250.453 170.667h414.592l-357.973 357.973c-5.335-17.763-8.405-38.175-8.405-59.305 0-0.001 0-0.001 0-0.002v0-213.333c0-0.003 0-0.006 0-0.010 0-8.822-2.678-17.019-7.264-23.822l0.096 0.152-41.045-61.653zM451.669 85.333c9.024-25.12 32.639-42.762 60.373-42.762s51.349 17.642 60.233 42.316l0.14 0.446h-120.747z" />
<glyph unicode="&#xe978;" glyph-name="options-horizontal" d="M512 298.667c47.128 0 85.333 38.205 85.333 85.333s-38.205 85.333-85.333 85.333v0c-47.128 0-85.333-38.205-85.333-85.333s38.205-85.333 85.333-85.333v0zM256 298.667c47.128 0 85.333 38.205 85.333 85.333s-38.205 85.333-85.333 85.333v0c-47.128 0-85.333-38.205-85.333-85.333s38.205-85.333 85.333-85.333v0zM768 298.667c47.128 0 85.333 38.205 85.333 85.333s-38.205 85.333-85.333 85.333v0c-47.128 0-85.333-38.205-85.333-85.333s38.205-85.333 85.333-85.333v0z" />
<glyph unicode="&#xe979;" glyph-name="options-vertical" d="M426.667 384c0-47.128 38.205-85.333 85.333-85.333s85.333 38.205 85.333 85.333v0c0 47.128-38.205 85.333-85.333 85.333s-85.333-38.205-85.333-85.333v0zM426.667 640c0-47.128 38.205-85.333 85.333-85.333s85.333 38.205 85.333 85.333v0c0 47.128-38.205 85.333-85.333 85.333s-85.333-38.205-85.333-85.333v0zM426.667 128c0-47.128 38.205-85.333 85.333-85.333s85.333 38.205 85.333 85.333v0c0 47.128-38.205 85.333-85.333 85.333s-85.333-38.205-85.333-85.333v0z" />
<glyph unicode="&#xe97a;" glyph-name="pause" d="M384 640c23.564 0 42.667-19.103 42.667-42.667v0-426.667c0-23.564-19.103-42.667-42.667-42.667s-42.667 19.103-42.667 42.667v0 426.667c0 23.564 19.103 42.667 42.667 42.667v0zM640 640c23.564 0 42.667-19.103 42.667-42.667v0-426.667c0-23.564-19.103-42.667-42.667-42.667s-42.667 19.103-42.667 42.667v0 426.667c0 23.564 19.103 42.667 42.667 42.667v0z" />
<glyph unicode="&#xe97b;" glyph-name="pen" d="M755.499 798.165c-7.721 7.718-18.386 12.492-30.165 12.492s-22.445-4.774-30.165-12.492l-97.835-97.835-55.168 55.168c-7.721 7.718-18.386 12.492-30.165 12.492s-22.445-4.774-30.165-12.492l-256-256c-7.41-7.665-11.977-18.12-11.977-29.641 0-23.564 19.103-42.667 42.667-42.667 11.521 0 21.976 4.567 29.653 11.989l225.823 225.823 25.003-25.003-396.501-396.501c-7.722-7.719-12.499-18.384-12.501-30.165v-170.668c0-23.564 19.103-42.667 42.667-42.667v0h170.667c11.781 0.003 22.446 4.78 30.165 12.501l554.667 554.667c7.718 7.721 12.492 18.386 12.492 30.165s-4.774 22.445-12.492 30.165l-170.667 170.667zM627.499 609.835l97.835 97.835 110.336-110.336-195.669-195.669-110.336 110.336 97.835 97.835zM213.333 195.669l256 256 110.336-110.336-256-256h-110.336v110.336z" />
<glyph unicode="&#xe97c;" glyph-name="percentage" d="M798.165 670.165c7.718-7.721 12.492-18.386 12.492-30.165s-4.774-22.445-12.492-30.165l-512-512c-7.665-7.41-18.12-11.977-29.641-11.977-23.564 0-42.667 19.103-42.667 42.667 0 11.521 4.567 21.976 11.989 29.653l511.988 511.988c7.721 7.718 18.386 12.492 30.165 12.492s22.445-4.774 30.165-12.492v0zM725.333 85.333c47.128 0 85.333 38.205 85.333 85.333s-38.205 85.333-85.333 85.333v0c-47.128 0-85.333-38.205-85.333-85.333s38.205-85.333 85.333-85.333v0zM298.667 512c47.128 0 85.333 38.205 85.333 85.333s-38.205 85.333-85.333 85.333v0c-47.128 0-85.333-38.205-85.333-85.333s38.205-85.333 85.333-85.333v0z" />
<glyph unicode="&#xe97d;" glyph-name="pin" d="M256 443.733v281.6c-23.564 0-42.667 19.103-42.667 42.667s19.103 42.667 42.667 42.667v0h512c23.564 0 42.667-19.103 42.667-42.667s-19.103-42.667-42.667-42.667v0-281.6c39.765-43.52 61.099-86.784 72.491-120.917 6.229-18.688 9.387-34.56 11.093-46.080 0.79-5.201 1.401-11.527 1.692-17.936l0.015-0.41v-1.451l0.043-0.555v-0.341s-0.213 5.589 0-0.043c0-23.564-19.103-42.667-42.667-42.667v0h-256v-213.333c0-23.564-19.103-42.667-42.667-42.667s-42.667 19.103-42.667 42.667v0 213.333h-256c-23.564 0-42.667 19.103-42.667 42.667v0 0.939c0.024 2.059 0.117 4.050 0.276 6.021l-0.020-0.304c0.412 5.609 0.942 10.449 1.63 15.238l-0.136-1.158c1.707 11.52 4.864 27.392 11.093 46.080 11.392 34.133 32.725 77.397 72.491 120.96zM682.667 725.333h-341.333v-298.667c-0.003-11.781-4.78-22.446-12.501-30.165v0c-36.139-36.139-54.229-71.595-63.403-97.835h493.184c-9.173 26.24-27.307 61.696-63.403 97.835-7.737 7.714-12.529 18.379-12.544 30.162v298.67z" />
</font>
</defs>
</svg>
