<?xml version="1.0" standalone="no"?>
<!DOCTYPE svg PUBLIC "-//W3C//DTD SVG 1.1//EN" "http://www.w3.org/Graphics/SVG/1.1/DTD/svg11.dtd" >
<svg xmlns="http://www.w3.org/2000/svg">
<metadata>Generated by IcoMoon</metadata>
<defs>
<font id="font-awesome-brands" horiz-adv-x="1024">
<font-face units-per-em="1024" ascent="896" descent="-128" />
<missing-glyph horiz-adv-x="1024" />
<glyph unicode="&#x20;" horiz-adv-x="0" d="" />
<glyph unicode="&#xe900;" glyph-name="square-x-twitter" horiz-adv-x="896" d="M128 832c-70.6 0-128-57.4-128-128v-640c0-70.6 57.4-128 128-128h640c70.6 0 128 57.4 128 128v640c0 70.6-57.4 128-128 128h-640zM722.2 664l-207.6-237.2 244.2-322.8h-191.2l-149.6 195.8-171.4-195.8h-95l222 253.8-234.2 306.2h196l135.4-179 156.4 179h95zM646.6 160.8l-339.8 449.4h-56.6l343.6-449.4h52.6z" />
<glyph unicode="&#xe901;" glyph-name="x-twitter" d="M778.4 800h141.2l-308.4-352.4 362.8-479.6h-284l-222.6 290.8-254.4-290.8h-141.4l329.8 377-347.8 455h291.2l201-265.8 232.6 265.8zM728.8 52.4h78.2l-504.8 667.6h-84l510.6-667.6z" />
<glyph unicode="&#xe902;" glyph-name="px" horiz-adv-x="896" d="M206.6 207.4c-13 28.4-13.8 36.6 14.8 46.2 51.2 16 16-18.4 86.4-98.4h0.6v187.8c2.4 100.4 88 184.4 195.4 184.4 107.8 0 195.4-87 195.4-193.6 0-126.8-121.6-226.4-257-186.6-21 8.4-4.2 63.4 17 57.2 106 0 178.8 20.2 178.8 128.8 0 122-154.2 179.2-233.8 89.2-47-52.8-35.2-84.2-35.2-315.2 101.4-62 236.6-44 320.8 40.2 49.6 49.6 77 116 77 186 0 70.4-27.6 136.4-77.6 186.6-49.6 49.6-115.6 77-186.6 77s-137.6-27.6-187-77c-0.6-0.6-32-33-42.4-47.8l-1-1.2c-6.6-9.4-12.6-18.2-40.2-12.2-13.8 3.4-28.6 11.6-28.6 23.6v373.6c0 10 7.8 21 21 21h482.6c16.6 0 16.6-23.2 16.6-30.2 0-7.8 0-30.2-16.6-30.2h-446.4v-265.8h0.6c208.4 219.6 565.6 72 565.6-217.8 0-356.2-489.6-440.6-620.2-125.6zM333.2 729c-1-8.4 9.2-49 29.2-41.2 249.6 95 405.6-80.8 418.8-80.8 9.6 0 45.6 30.6 28.6 45.6-186.4 178-469 114-476.6 76.4zM786 66.6c-220-219.8-598-121.6-664 208.4 0 24.4-60.8 14.8-57.8-6.6 48-346.8 492-513.8 763.2-242.6 13.8 15.6-25.2 56.8-41.4 40.8zM427.2 282.8c0-8 8.6-14.6 11-17 6-6 12.2-8.8 17-8.8 7.6 0 5.2-0.4 44.6 39 39.2-38.6 38.2-39 44.6-39 10.8 0 37 20.8 21.4 36.4l-34.6 34.6 36.4 36.4c12.6 13.6-20.2 43.6-32.4 31.4l-35.8-35.8c-37.2 37.6-36.8 39-43 39-10 0-36-23.4-24.8-34.6l36.4-36.4c-36.2-35.8-40.8-38.4-40.8-45.2z" />
<glyph unicode="&#xe903;" glyph-name="amazon" horiz-adv-x="896" d="M514.4 570.6c-97.4-3.6-339-31-339-235 0-219 276.6-228 367-86.4 13-20.4 70.8-75 90.6-93.6l113.6 112s-64.6 50.6-64.6 105.6v294.2c0 50.6-49 164.6-224.6 164.6-176 0-269.4-110-269.4-208.6l147-13.6c32.6 99 108.4 99 108.4 99 81.4 0.2 71-59.6 71-138.2zM514.4 397c0-160-168.4-136-168.4-34.4 0 94.4 101 113.4 168.4 115.6v-81.2zM786.4 70c-15.4-20-140-134-349-134s-369 143-418 202c-13.6 15.4 2 22.6 11 16.6 146.6-89 375.6-235.6 745-60.6 15 7.4 26.6-4 11-24zM866 65.6c-13-31.6-32-53.6-42.4-62-11-9-19-5.4-13 7.6s38.6 93 25.4 110c-13 16.6-74 8.6-96 6.4-21.6-2-26-4-28 0.6-4.6 11.4 43.4 31 75 35 31.4 3.6 82 1.6 92-11.4 7.4-10.2 0-54.2-13-86.2z" />
<glyph unicode="&#xe904;" glyph-name="android" horiz-adv-x="1152" d="M841.1 292.14c-26.51 0-48 21.49-48 48s21.49 48 48 48c26.51 0 48-21.49 48-48v0c0-26.51-21.49-48-48-48v0zM310.9 292.14c-26.51 0-48 21.49-48 48s21.49 48 48 48c26.51 0 48-21.49 48-48v0c0-26.51-21.49-48-48-48v0zM858.3 581.1l95.88 166c2.125 3.128 3.392 6.988 3.392 11.144 0 11.046-8.954 20-20 20-7.82 0-14.592-4.488-17.88-11.029l-0.052-0.115-97.080-168.14c-72.475 33.327-157.248 52.76-246.56 52.76s-174.084-19.433-250.321-54.301l3.761 1.541-97.080 168.14c-3.341 6.656-10.112 11.144-17.932 11.144-11.046 0-20-8.954-20-20 0-4.156 1.268-8.016 3.437-11.214l-0.045 0.070 95.88-166c-164.64-89.54-277.22-256.2-293.7-453.1h1152c-16.48 196.9-129.080 363.56-293.7 453.1z" />
<glyph unicode="&#xe905;" glyph-name="apple" horiz-adv-x="768" d="M637.4 358.6c-0.4 73.4 32.8 128.8 100 169.6-37.6 53.8-94.4 83.4-169.4 89.2-71 5.6-148.6-41.4-177-41.4-30 0-98.8 39.4-152.8 39.4-111.6-1.8-230.2-89-230.2-266.4q0-78.6 28.8-162.4c25.6-73.4 118-253.4 214.4-250.4 50.4 1.2 86 35.8 151.6 35.8 63.6 0 96.6-35.8 152.8-35.8 97.2 1.4 180.8 165 205.2 238.6-130.4 61.4-123.4 180-123.4 183.8zM524.2 687c54.6 64.8 49.6 123.8 48 145-48.2-2.8-104-32.8-135.8-69.8-35-39.6-55.6-88.6-51.2-143.8 52.2-4 99.8 22.8 139 68.6z" />
<glyph unicode="&#xe906;" glyph-name="behance" horiz-adv-x="1152" d="M464 421.6c63.6 30.4 96.8 76.4 96.8 148 0 141.2-105.2 175.6-226.6 175.6h-334.2v-708.8h343.6c128.8 0 249.8 61.8 249.8 205.8 0 89-42.2 154.8-129.4 179.4zM155.8 624.2h146.2c56.2 0 106.8-15.8 106.8-81 0-60.2-39.4-84.4-95-84.4h-158v165.4zM322.4 156.8h-166.6v195.2h169.8c68.6 0 112-28.6 112-101.2 0-71.6-51.8-94-115.2-94zM1039.4 638.2h-287.4v69.8h287.4v-69.8zM1152 285.6c0 151.8-88.8 278.4-249.8 278.4-156.4 0-262.6-117.6-262.6-271.6 0-159.8 100.6-269.4 262.6-269.4 122.6 0 202 55.2 240.2 172.6h-124.4c-13.4-43.8-68.6-67-111.4-67-82.6 0-126 48.4-126 130.6h370.2c0.6 8.4 1.2 17.4 1.2 26.4zM780.8 348c4.6 67.4 49.4 109.6 117 109.6 70.8 0 106.4-41.6 112.4-109.6h-229.4z" />
<glyph unicode="&#xe907;" glyph-name="blogger" horiz-adv-x="896" d="M324.8 504c9.6 9.8 12.4 10.2 72.8 10.2 54.4 0 56.2-0.2 64.2-4.2 11.6-5.8 16.6-14 16.6-27.2 0-11.8-4.8-20-15.2-26.8-5.6-3.6-9-3.8-62.2-4.2-32.8-0.2-59 0.4-63 1.6-20.6 5.8-28.2 35.4-13.2 50.6zM447.6 315c-107.8 0-111.6-0.4-120.4-8.2-7-6.2-11.4-18.8-10.2-27.8 1.4-9.4 9.6-20.2 18.4-24 4.4-2 28.2-3.4 112.6-2.4l95.8 1.2 18.4 3c18 10.2 21 34.8 6.2 48.8-10.6 9.4-10 9.4-120.8 9.4zM894.4 54.8c-7-56.8-46-100.8-102.2-115-14.4-3.6-19.4-3.8-345.8-3.6-315.6 0-331.8 0.2-344 3.6-16.8 4.4-31.2 11-44.6 20-11.2 7.6-27.8 23.6-34 32.8-7.6 11.2-16.4 30.6-20 44s-3.8 18.8-3.8 346.8c0 326.2 0 333.2 3.6 347.4 12.6 49.4 51.8 87.2 102.4 98.4 14.6 3.2 664.2 3.8 680 0.6 42.4-8.6 75.8-34.2 95.2-72.8 15.4-30.6 14 3 14.6-361.2 0.4-231.6 0-329-1.4-341zM723.6 425.2c-2.2 10-8.4 19.2-15.4 23-2.2 1.2-16 2.6-31 3.4-24.8 1.2-27.6 1.6-35.6 6.2-12.4 7.2-15.8 15.2-16 36.6 0 40.8-17 78.8-50.6 113-24 24.4-50.6 41-81.2 50.2-7.2 2.2-23.6 3-78.4 3.6-85.8 1-105-0.8-134.2-12.4-54-21.4-92.6-66.8-106.8-124.8-2.6-10.8-3.2-28.4-3.8-128.6-0.8-125.6 0-144.2 8-169 19.4-61.4 74.2-106.8 129.2-116.8 18.4-3.4 244.4-4.2 267.4-1 40.2 5.4 71.8 21.6 101.4 51.8 21.4 21.8 34.8 45.6 43.6 77 6.4 21.8 5.8 176.8 3.4 187.8z" />
<glyph unicode="&#xe908;" glyph-name="codepen" d="M1004.57 576.592l-468 312c-15.974 9.83-33.022 9.92-49.142 0l-468-312c-12-7.998-19.428-22.286-19.428-36.57v-311.998c0-14.286 7.428-28.572 19.43-36.572l468-312.044c15.974-9.83 33.022-9.92 49.142 0l468 312.044c12 7.998 19.43 22.286 19.43 36.572v311.998c-0.002 14.284-7.43 28.572-19.432 36.57zM556 769.738l344.572-229.716-153.714-102.858-190.858 127.43v205.144zM468 769.738v-205.144l-190.858-127.43-153.714 102.858 344.572 229.716zM88 457.736l110.286-73.714-110.286-73.714v147.428zM468-1.694l-344.572 229.716 153.714 102.858 190.858-127.43v-205.144zM512 280.022l-155.43 104 155.43 104 155.43-104-155.43-104zM556-1.694v205.144l190.858 127.43 153.714-102.858-344.572-229.716zM936 310.308l-110.286 73.714 110.286 73.714v-147.428z" />
<glyph unicode="&#xe909;" glyph-name="deviantart" horiz-adv-x="640" d="M640 709.6l-196.4-358.2 14.8-19h181.6v-255.4h-321.8l-27-18.4-87.4-168c-0.6 0-17.2-17.2-18.4-18.4h-185.4v186.4l186.4 358.8-14.8 18.4h-171.6v255.2h312l27 18.4 87.4 168c0.6 0 17.2 17.2 18.4 18.4h195.2v-186.2z" />
<glyph unicode="&#xe90a;" glyph-name="digg" d="M163.4 551.4h-163.4v-348.8h265.4v501.4h-102v-152.6zM163.4 284.6h-61.6v184.6h61.6v-184.6zM757.8 551.4v-348.8h163.6v-57h-163.6v-81.6h266.2v487.4h-266.2zM921.4 284.6h-61.6v184.6h61.6v-184.6zM450.2 202.6h164.2v-57h-164.2v-81.6h266.6v487.4h-266.6v-348.8zM552.6 469.2h61.6v-184.6h-61.6v184.6zM306.6 704h102.6v-102h-102.6v102zM306.6 551.4h102.6v-348.8h-102.6v348.8z" />
<glyph unicode="&#xe90b;" glyph-name="dribbble" d="M512 880c-273.496 0-496-222.504-496-496s222.504-496 496-496 496 222.504 496 496-222.504 496-496 496zM839.94 651.268c59.006-72.092 94.738-163.914 95.67-263.91-13.968 2.954-154.036 31.364-295.004 13.636-11.504 28.082-22.362 52.786-37.234 83.228 156.642 63.954 227.636 154.964 236.568 167.046zM792.842 700.26c-7.62-10.854-71.394-96.572-222.042-153.038-69.424 127.552-146.37 232.336-158.080 248.016 134.352 32.386 275.932-2.54 380.122-94.978zM331.882 766.76c11.17-15.318 86.876-120.232 157.074-245.018-198.174-52.626-372.72-51.868-391.668-51.618 27.472 131.466 116.068 240.73 234.594 296.636zM88.34 383.354c0 4.332 0.086 8.644 0.216 12.946 18.536-0.38 223.84-3.026 435.412 60.292 12.128-23.736 23.714-47.83 34.348-71.898-153.198-43.15-292.388-167.054-361.062-284.612-67.666 75.108-108.914 174.458-108.914 283.272zM251.954 49.128c44.254 90.466 164.356 207.244 335.158 265.512 59.48-154.566 84.078-284.106 90.378-321.276-136.224-58.026-300.030-42.106-425.536 55.764zM748.714 32.15c-4.342 25.772-26.892 149.794-82.304 302.066 132.76 21.252 249.4-13.536 263.894-18.11-18.884-117.882-86.546-219.688-181.59-283.956z" />
<glyph unicode="&#xe90c;" glyph-name="dropbox" horiz-adv-x="1056" d="M528.8 663.4l-264-168.6 264-168.6-264-168.6-264.8 170.2 264.6 168.6-264.6 167 264.6 168.6 264.2-168.6zM263.2 104.6l264 168.6 264-168.6-264-168.6-264 168.6zM528.8 327.8l264 168.6-264 167.2 262.6 168.4 264.6-168.6-264.6-168.6 264.6-168.4-264.6-168.6-262.6 170z" />
<glyph unicode="&#xe90d;" glyph-name="etsy" horiz-adv-x="768" d="M768 200c-3.5-21.5-27.5-220-31-264-235.758 8.598-439.79 9.486-737 0v51c90.914 17.896 121.254 16.038 122 70.5 3.586 144.644 7.048 488.286 0 644-2.058 56.92-24.26 53.53-122 72v51c147.772-4.716 511.866-17.102 725.998 7.5-7-76.5-15.5-253-15.5-253h-46.498c-22.106 85.67-37.518 181-109.5 181h-274c-20.5 0-21.5-7-21.5-19.5v-327.5c116-1 177 5 177 5 59.54 1.902 55.12 17.004 81.5 130.502h51.5c-8.814-202.702-7.82-123.658-3.5-320.5h-51.5c-18.31 80.172-18.13 122.090-79.002 123 0 0-43 4-176 4v-278c0-52 28.5-76.5 88.5-76.5h178.502c127.272 0 133.128 49.992 197.502 199.5h44.498z" />
<glyph unicode="&#xe90e;" glyph-name="facebook" d="M1008 384c0 274-222 496-496 496s-496-222-496-496c0-247.56 181.38-452.76 418.5-490v346.62h-126v143.38h126v109.28c0 124.3 74 192.96 187.34 192.96 54.28 0 111.040-9.68 111.040-9.68v-122h-62.56c-61.6 0-80.82-38.24-80.82-77.46v-93.1h137.56l-22-143.38h-115.56v-346.62c237.12 37.24 418.5 242.44 418.5 490z" />
<glyph unicode="&#xe90f;" glyph-name="facebook-f" horiz-adv-x="640" d="M558.28 320l28.44 185.32h-177.82v120.26c0 50.7 24.84 100.12 104.48 100.12h80.84v157.78s-73.36 12.52-143.5 12.52c-146.44 0-242.16-88.76-242.16-249.44v-141.24h-162.78v-185.32h162.78v-448h200.34v448z" />
<glyph unicode="&#xe910;" glyph-name="figma" horiz-adv-x="768" d="M28 704.415c0 105.809 85.776 191.585 191.586 191.585h328.736c105.81 0 191.586-85.775 191.586-191.585 0-66.999-34.392-125.967-86.486-160.209 52.094-34.244 86.486-93.21 86.486-160.21 0-105.81-85.776-191.586-191.586-191.586h-4.16c-49.604 0-94.806 18.852-128.83 49.782v-176.526c0-107.22-88.018-193.666-194.714-193.666-105.546 0-192.618 85.514-192.618 191.586 0 66.996 34.389 125.96 86.478 160.204-52.089 34.244-86.478 93.21-86.478 160.206 0 67 34.392 125.966 86.485 160.21-52.093 34.242-86.485 93.21-86.485 160.209zM352.576 512.826h-132.99c-71.152 0-128.83-57.68-128.83-128.83 0-70.876 57.234-128.384 128.006-128.828 0.274 0.002 0.548 0.002 0.824 0.002h132.99v257.656zM415.332 383.996c0-71.15 57.678-128.83 128.83-128.83h4.16c71.152 0 128.83 57.68 128.83 128.83s-57.678 128.83-128.83 128.83h-4.16c-71.152 0-128.83-57.68-128.83-128.83zM219.586 192.41c-0.276 0-0.55 0.002-0.824 0.002-70.772-0.442-128.006-57.95-128.006-128.826 0-70.89 58.449-128.83 129.862-128.83 72.564 0 131.958 58.872 131.958 130.91v126.744h-132.99zM219.586 833.244c-71.152 0-128.83-57.679-128.83-128.829s57.679-128.829 128.83-128.829h132.99v257.658h-132.99zM415.332 575.586h132.99c71.152 0 128.83 57.678 128.83 128.829s-57.678 128.829-128.83 128.829h-132.99v-257.658z" />
<glyph unicode="&#xe911;" glyph-name="flickr" horiz-adv-x="896" d="M800 832h-704c-53 0-96-43-96-96v-704c0-53 43-96 96-96h704c53 0 96 43 96 96v704c0 53-43 96-96 96zM289 258c-70.2 0-127 56.8-127 127s56.8 127 127 127 127-56.8 127-127-56.8-127-127-127zM607 258c-70.2 0-127 56.8-127 127s56.8 127 127 127 127-56.8 127-127-56.8-127-127-127z" />
<glyph unicode="&#xe912;" glyph-name="github" horiz-adv-x="992" d="M331.8 101.2c0-4-4.6-7.2-10.4-7.2-6.6-0.6-11.2 2.6-11.2 7.2 0 4 4.6 7.2 10.4 7.2 6 0.6 11.2-2.6 11.2-7.2zM269.6 110.2c-1.4-4 2.6-8.6 8.6-9.8 5.2-2 11.2 0 12.4 4s-2.6 8.6-8.6 10.4c-5.2 1.4-11-0.6-12.4-4.6zM358 113.6c-5.8-1.4-9.8-5.2-9.2-9.8 0.6-4 5.8-6.6 11.8-5.2 5.8 1.4 9.8 5.2 9.2 9.2-0.6 3.8-6 6.4-11.8 5.8zM489.6 880c-277.4 0-489.6-210.6-489.6-488 0-221.8 139.6-411.6 339-478.4 25.6-4.6 34.6 11.2 34.6 24.2 0 12.4-0.6 80.8-0.6 122.8 0 0-140-30-169.4 59.6 0 0-22.8 58.2-55.6 73.2 0 0-45.8 31.4 3.2 30.8 0 0 49.8-4 77.2-51.6 43.8-77.2 117.2-55 145.8-41.8 4.6 32 17.6 54.2 32 67.4-111.8 12.4-224.6 28.6-224.6 221 0 55 15.2 82.6 47.2 117.8-5.2 13-22.2 66.6 5.2 135.8 41.8 13 138-54 138-54 40 11.2 83 17 125.6 17s85.6-5.8 125.6-17c0 0 96.2 67.2 138 54 27.4-69.4 10.4-122.8 5.2-135.8 32-35.4 51.6-63 51.6-117.8 0-193-117.8-208.4-229.6-221 18.4-15.8 34-45.8 34-92.8 0-67.4-0.6-150.8-0.6-167.2 0-13 9.2-28.8 34.6-24.2 200 66.4 335.6 256.2 335.6 478 0 277.4-225 488-502.4 488zM194.4 190.2c-2.6-2-2-6.6 1.4-10.4 3.2-3.2 7.8-4.6 10.4-2 2.6 2 2 6.6-1.4 10.4-3.2 3.2-7.8 4.6-10.4 2zM172.8 206.4c-1.4-2.6 0.6-5.8 4.6-7.8 3.2-2 7.2-1.4 8.6 1.4 1.4 2.6-0.6 5.8-4.6 7.8-4 1.2-7.2 0.6-8.6-1.4zM237.6 135.2c-3.2-2.6-2-8.6 2.6-12.4 4.6-4.6 10.4-5.2 13-2 2.6 2.6 1.4 8.6-2.6 12.4-4.4 4.6-10.4 5.2-13 2zM214.8 164.6c-3.2-2-3.2-7.2 0-11.8s8.6-6.6 11.2-4.6c3.2 2.6 3.2 7.8 0 12.4-2.8 4.6-8 6.6-11.2 4z" />
<glyph unicode="&#xe913;" glyph-name="google" horiz-adv-x="976" d="M976 372.4c0-283-193.8-484.4-480-484.4-274.4 0-496 221.6-496 496s221.6 496 496 496c133.6 0 246-49 332.6-129.8l-135-129.8c-176.6 170.4-505 42.4-505-236.4 0-173 138.2-313.2 307.4-313.2 196.4 0 270 140.8 281.6 213.8h-281.6v170.6h472.2c4.6-25.4 7.8-49.8 7.8-82.8z" />
<glyph unicode="&#xe914;" glyph-name="google-drive" d="M678 266.2l-327.2 565.8h322.4l327.2-565.8h-322.4zM403 219l-161.2-283h621l161.2 283h-621zM308.2 761.2l-308.2-542.2 161.2-283 312.8 542.4-165.8 282.8z" />
<glyph unicode="&#xe915;" glyph-name="google-play" d="M650.6 427.4l-441.4 442.6 561.6-322.4-120.2-120.2zM94 896c-26-13.6-43.4-38.4-43.4-70.6v-882.6c0-32.2 17.4-57 43.4-70.6l513.2 512-513.2 511.8zM944.4 444.8l-117.8 68.2-131.4-129 131.4-129 120.2 68.2c36 28.6 36 93-2.4 121.6zM209.2-102l561.6 322.4-120.2 120.2-441.4-442.6z" />
<glyph unicode="&#xe916;" glyph-name="hubspot" d="M534.8 472.8c-50.2-47.4-81.6-114.6-81.6-189.2 0-58.6 19.4-112.6 52-156l-99-99.6c-8.8 3.2-18.2 5-28 5-21.6 0-41.8-8.4-57-23.6s-23.6-35.6-23.6-57.2 8.4-41.8 23.6-57c15.2-15.2 35.6-23.2 57-23.2 21.6 0 41.8 7.8 57.2 23.2 15.2 15.2 23.6 35.6 23.6 57 0 8.4-1.2 16.4-3.8 24.2l100 100.4c44-33.8 98.8-53.8 158.6-53.8 143.8 0 260 116.6 260 260.4 0 130.4-95.4 238.4-220.4 257.4v123.2c35 14.8 56.4 47.6 56.4 85.8 0 52.2-41.8 95.8-94 95.8s-93.4-43.6-93.4-95.8c0-38.2 21.4-71 56.4-85.8v-122.4c-30.4-4.2-59.2-13.4-85.4-27.2-55.2 41.8-235 171.4-337.8 249.6 2.4 8.8 4 18 4 27.6 0 57.6-47 104.4-104.8 104.4-57.6 0-104.4-46.8-104.4-104.4 0-57.8 46.8-104.6 104.4-104.6 19.6 0 37.8 5.8 53.6 15.2l326.4-229.4zM713.8 145.6c-76.2 0-138 61.8-138 138s61.8 138 138 138 138-61.8 138-138-61.8-138-138-138z" />
<glyph unicode="&#xe917;" glyph-name="imdb" horiz-adv-x="896" d="M179 248.8h-71.14v274.8h71.14v-274.8zM312.2 395l18.2 128.6h92.6v-274.8h-62v185.4l-26.8-185.4h-42.6l-26 181.4-0.2-181.4h-62.4v274.8h92.2c1-16.6 5.6-36.2 8.6-58.8l8.4-69.8zM447.4 248.8v274.8h53.2c34 0 54-1.8 66-4.8 12.2-3.4 21.4-8.4 27.8-15.8 6.2-6.6 10.2-13.2 11.6-24 1.8-8.8 2.8-26.2 2.8-52.4v-96.4c0-24.6-1.4-41-3.8-49.4-2.2-8.2-6.2-14.8-12-19.4-5.6-4.8-12.8-8.2-21.4-10-8.4-1.6-21.2-2.6-38.2-2.6h-86zM518.4 476.6v-178.8c10.2 0 16.6 2 18.8 4.6 2.2 4 3.6 15.2 3.6 33.4v106.6c0 12.4-0.2 20.4-1.4 24-0.6 3.6-2.4 6-5.2 9.4-2.8 0-8.2 0.8-15.8 0.8v0zM633 248.8v274.8h68.2v-87.8c5.8 4.8 12.2 9.8 19 13.2 7.2 3 17.6 4.8 25.6 4.8 9.6 0 17.8-1.6 24.6-4.4 6.8-3 12-7 16-12.4 3.4-5.2 5.4-10.6 6.2-15.6 0.8-5.2-0.4-16-0.4-32.4v-77.2c0-16.4 0.4-28.6-1.6-36.8-2.2-8-7.6-15.2-15.6-19.2-8.2-7.8-17.8-10.6-29.2-10.6-8 0-18.4 1.8-25.4 5-7 3.6-13.4 9-19.2 16l-4.2-17.4h-64zM723.2 290.2c1.4 3.6 2 12 2 25v70.8c0 11.2-0.6 19-2.2 22.4-1.4 3.8-7.4 5.4-11.6 5.4-4 0-6.8-1.6-8.2-4.6-1.2-3-2-10.8-2-23.2v-72.8c0-12.2 0.8-20 2.4-23.2 1.2-3.4 4.2-5 8.2-5 4.4 0 8.4 1.6 11.4 5.2v0zM836.8 831.92c31.4-2.46 57.4-30.48 57.4-63.76v-768.36c0-32.8-23.8-60.8-56.4-62-0.6 0-1-1.8-1.6-1.8h-776.44c-0.56 0-1.12 1.8-1.68 0.2-31.46 2.8-55.894 27.6-58.080 60.4l0.037 775.84c2.125 31.8 27.603 57.38 60.483 61.36h774.88c0.4 0 1-1.82 1.4-1.88v0zM60.54 813.48c-22.54-1.5-40.5-19.5-42.026-42.28v-774.6c0.746-10.8 5.306-21 12.886-28.6 7.56-7.8 17.62-12.6 28.38-13.4h776.42c23 2 41.2 23.2 41.2 45.2v768.38c0 11.48-4.2 22.52-12 30.92-7.8 8.42-18.6 13.56-30 14.38h-774.86z" />
<glyph unicode="&#xe918;" glyph-name="instagram" horiz-adv-x="896" d="M448.2 614c-127.2 0-229.8-102.6-229.8-229.8s102.6-229.8 229.8-229.8 229.8 102.6 229.8 229.8-102.6 229.8-229.8 229.8zM448.2 234.8c-82.2 0-149.4 67-149.4 149.4s67 149.4 149.4 149.4 149.4-67 149.4-149.4-67.2-149.4-149.4-149.4zM741 623.4c0-29.8-24-53.6-53.6-53.6-29.8 0-53.6 24-53.6 53.6s24 53.6 53.6 53.6 53.6-24 53.6-53.6zM893.2 569c-3.4 71.8-19.8 135.4-72.4 187.8-52.4 52.4-116 68.8-187.8 72.4-74 4.2-295.8 4.2-369.8 0-71.6-3.4-135.2-19.8-187.8-72.2s-68.8-116-72.4-187.8c-4.2-74-4.2-295.8 0-369.8 3.4-71.8 19.8-135.4 72.4-187.8s116-68.8 187.8-72.4c74-4.2 295.8-4.2 369.8 0 71.8 3.4 135.4 19.8 187.8 72.4 52.4 52.4 68.8 116 72.4 187.8 4.2 74 4.2 295.6 0 369.6zM797.6 120c-15.6-39.2-45.8-69.4-85.2-85.2-59-23.4-199-18-264.2-18s-205.4-5.2-264.2 18c-39.2 15.6-69.4 45.8-85.2 85.2-23.4 59-18 199-18 264.2s-5.2 205.4 18 264.2c15.6 39.2 45.8 69.4 85.2 85.2 59 23.4 199 18 264.2 18s205.4 5.2 264.2-18c39.2-15.6 69.4-45.8 85.2-85.2 23.4-59 18-199 18-264.2s5.4-205.4-18-264.2z" />
<glyph unicode="&#xe919;" glyph-name="itunes" horiz-adv-x="896" d="M447.2 735.4c-189.2 0-342.2-153.4-342.2-342.4s153-342.6 342.2-342.6 342.4 153.4 342.4 342.4c0 189.2-153.4 342.6-342.4 342.6zM606 255.4c-6.4-27.2-27-42.4-54.6-47.6-24.2-4.4-44.4-5.6-63.8 10-23.6 20-24 52.8-2.8 73.6 16.8 16 40.6 19.2 76 25.6 6 1 11.2 2.4 15.4 7.4 6.4 7.2 4.4 4 4.4 161.6 0 11.2-5.4 14.2-16.8 12.2-8-1.4-183.8-34.2-183.8-34.2-10-2.2-13.4-5.2-13.4-16.6 0-232.2 1-221.6-2.4-237-4.2-18-15.2-31.6-29.8-39.2-16.6-9.2-46.8-13.2-62.8-10.4-42.8 8-57.8 57.4-28.8 85.8 16.8 16 40.6 19.2 76 25.6 6 1 11.2 2.4 15.4 7.4 10 11.4 1.8 254 5.2 267.4 0.8 5.2 3 9.6 7 12.8 4.2 3.4 11.6 5.4 13.4 5.4 202 38 226.6 42.8 230.2 42.8 11.4 0.8 18-6 18-17.4-0.2-341.2 0.8-322.8-2-335.2zM690.4 832h-484.8c-113.8 0-205.6-91.8-205.6-205.6v-484.8c0-113.8 91.8-205.6 205.6-205.6h484.8c114 0 205.6 91.8 205.6 205.6v484.8c0 113.8-91.8 205.6-205.6 205.6zM447.2 8c-212.6 0-385 172.4-385 385s172.4 385 385 385 385-172.4 385-385-172.4-385-385-385z" />
<glyph unicode="&#xe91a;" glyph-name="jsfiddle" horiz-adv-x="1152" d="M1021.268 421.076c-9.454 5.242-11.328 11.496-12.762 21.552-4.704 32.976-7.078 67.238-18.194 98.19-71.79 199.914-307.98 286.772-493.698 183.292-54.74-30.5-97.942-72.738-130.986-127.806-6.368 3.016-10.916 5.42-15.648 7.372-60.204 24.842-118.098 20.242-170.662-18.334-51.062-37.474-72.844-89.096-65.352-152.816 0.71-6.050-3.934-15.242-9.028-19.090-79.424-59.984-112.062-156.13-83.804-249.23 27.662-91.138 115.028-159.592 211.216-162.866 60.582-2.062 121.274-1.092 181.918-1.078 168.082 0.042 336.18-1.062 504.24 0.96 105.328 1.268 192.216 73.746 216.424 174.586 23.080 96.148-22.288 194.6-113.664 245.268zM1063.482 107.316c-36.46-44.864-84.686-70.506-142.56-71.3-113.748-1.562-227.534-0.46-341.304-0.46 0-1.4-326.056-0.318-327.456-0.308-87.722 0.664-153.478 39.532-190.35 119.99-37.804 82.49-8.008 181.696 68.372 232.212 18.364 12.146 25.010 23.132 20.192 46.272-10.98 52.722 8.906 95.912 52.84 125.962 45.974 31.446 94.844 32.292 144.068 6.166 20.538-10.9 29.214-23.128 44.396 5.054 28.444 52.798 69.114 93.454 121.342 122.588 194.92 108.732 456.74-15.136 460.48-265.394 0.244-16.3 4.824-24.856 19.696-31.788 115.12-53.658 148.912-192.244 70.284-288.994zM887.904 268.314c-11.696-62.314-69.244-110.192-133.332-110.19-33.906 0.002-64.116 13.090-88.158 35.41-55.394 51.426-142.282 149.96-191.874 186.774-40.112 29.776-83.98 24.666-120.544-7.564-99.992-88.142 31.718-243.55 134.126-154.376 9.096 7.92 15.68 19.086 25.488 25.688 16.368 11.018 41.532 1.768 26.336-21.244-34.716-52.568-98.66-76.394-157.726-58.602-57.794 17.408-97.68 71.936-97.252 140.358 2.45 44.97 24.728 86.12 70.828 111.93 45.15 25.276 92.738 26.292 133.982-4.948 101.582-76.95 151.156-163.49 214.592-202.49 49.116-30.198 108.508-14.726 137.646 35.012 57.66 98.418-69.184 210.032-157.736 126.92-7.978-7.488-13.834-17.864-22.82-23.44-21.95-13.622-34.666 8.226-25.618 20.706 41.406 57.108 100.928 80.88 166.542 56.428 62.858-23.428 98.216-88.732 85.52-156.372z" />
<glyph unicode="&#xe91b;" glyph-name="kickstarter" horiz-adv-x="896" d="M800-64h-704c-52.8 0-96 43.2-96 96v704c0 52.8 43.2 96 96 96h704c52.8 0 96-43.2 96-96v-704c0-52.8-43.2-96-96-96zM399.2 539c0 61.4-35.2 90.2-79.4 90.2-51.6 0-80-39.6-80-89v-309.6c0-51.6 27.4-91.2 81-91.2 43 0 78.4 28 78.4 91.2v83.6l121.2-151.4c24.6-29.8 78-33.6 111.6 0 29.2 30.2 29.6 73.6 8 100.8l-98.2 125.6 81 117.4c18.8 27 19 69-11.2 98.2-32.8 31.8-89.2 34.6-122.8-14l-89.6-129.4v77.6z" />
<glyph unicode="&#xe91c;" glyph-name="linkedin" horiz-adv-x="896" d="M832 832h-768.2c-35.2 0-63.8-29-63.8-64.6v-766.8c0-35.6 28.6-64.6 63.8-64.6h768.2c35.2 0 64 29 64 64.6v766.8c0 35.6-28.8 64.6-64 64.6zM270.8 64h-132.8v427.6h133v-427.6zM204.4 550c-42.6 0-77 34.6-77 77s34.4 77 77 77c42.4 0 77-34.6 77-77 0-42.6-34.4-77-77-77zM768.6 64h-132.8v208c0 49.6-1 113.4-69 113.4-69.2 0-79.8-54-79.8-109.8v-211.6h-132.8v427.6h127.4v-58.4h1.8c17.8 33.6 61.2 69 125.8 69 134.4 0 159.4-88.6 159.4-203.8v-234.4z" />
<glyph unicode="&#xe91d;" glyph-name="linkedin-in" horiz-adv-x="896" d="M200.56 0h-185.76v598.2h185.76zM107.58 679.8c-59.4 0-107.58 49.2-107.58 108.6 0 59.415 48.165 107.58 107.58 107.58s107.58-48.165 107.58-107.58v0c0-59.4-48.2-108.6-107.58-108.6zM895.8 0h-185.36v291.2c0 69.4-1.4 158.4-96.58 158.4-96.58 0-111.38-75.4-111.38-153.4v-296.2h-185.56v598.2h178.16v-81.6h2.6c24.8 47 85.38 96.6 175.76 96.6 188 0 222.56-123.8 222.56-284.6v-328.6z" />
<glyph unicode="&#xe91e;" glyph-name="medium" horiz-adv-x="1280" d="M361 747.476c-199.374 0-361-162.742-361-363.476s161.638-363.476 361-363.476 361 162.73 361 363.476-161.618 363.476-361 363.476zM937.5 726.184c-99.69 0-180.49-153.238-180.49-342.19s80.812-342.2 180.502-342.2 180.502 153.238 180.502 342.2h-0.014c0 189.006-80.8 342.19-180.496 342.19zM1216.512 690.542c-35.052 0-63.47-137.256-63.47-306.548s28.4-306.548 63.47-306.548 63.488 137.292 63.488 306.554c0 169.298-28.43 306.542-63.484 306.542z" />
<glyph unicode="&#xe91f;" glyph-name="paypal" horiz-adv-x="768" d="M222.8 304.2c-7-38.4-34.8-217.4-43-268-0.6-3.6-2-5-6-5h-149.2c-15.2 0-26.2 13.2-24.2 27.8l117.2 743.8c3 19.2 20.2 33.8 40 33.8 304.6 0 330.2 7.4 408-22.8 120.2-46.6 131.2-159 88-280.6-43-125.2-145-179-280.2-180.6-86.8-1.4-139 14-150.6-48.4zM714.2 592c-3.6 2.6-5 3.6-6-2.6-4-22.8-10.2-45-17.6-67.2-79.8-227.6-301-207.8-409-207.8-12.2 0-20.2-6.6-21.8-18.8-45.2-280.8-54.2-339.4-54.2-339.4-2-14.2 7-25.8 21.2-25.8h127c17.2 0 31.4 12.6 34.8 29.8 1.4 10.8-2.2-12.2 28.8 182.6 9.2 44 28.6 39.4 58.6 39.4 142 0 252.8 57.6 285.8 224.6 13 69.6 9.2 142.8-47.6 185.2z" />
<glyph unicode="&#xe920;" glyph-name="pinterest" horiz-adv-x="992" d="M992 384c0-274-222-496-496-496-51.2 0-100.4 7.8-146.8 22.2 20.2 33 50.4 87 61.6 130 6 23.2 30.8 118 30.8 118 16.2-30.8 63.4-57 113.6-57 149.6 0 257.4 137.6 257.4 308.6 0 163.8-133.8 286.4-305.8 286.4-214 0-327.8-143.6-327.8-300.2 0-72.8 38.8-163.4 100.6-192.2 9.4-4.4 14.4-2.4 16.6 6.6 1.6 6.8 10 40.6 13.8 56.2 1.2 5 0.6 9.4-3.4 14.2-20.2 25-36.6 70.6-36.6 113.2 0 109.4 82.8 215.2 224 215.2 121.8 0 207.2-83 207.2-201.8 0-134.2-67.8-227.2-156-227.2-48.6 0-85.2 40.2-73.4 89.6 14 59 41 122.6 41 165.2 0 38-20.4 69.8-62.8 69.8-49.8 0-89.8-51.4-89.8-120.4 0-44 14.8-73.6 14.8-73.6s-49-207.6-58-246.4c-10-42.8-6-103.2-1.8-142.4-184.4 72.2-315.2 251.8-315.2 462 0 274 222 496 496 496s496-222 496-496z" />
<glyph unicode="&#xe921;" glyph-name="pinterest-p" horiz-adv-x="768" d="M408 883c-205.2 0-408-136.8-408-358.2 0-140.8 79.2-220.8 127.2-220.8 19.8 0 31.2 55.2 31.2 70.8 0 18.6-47.4 58.2-47.4 135.6 0 160.8 122.4 274.8 280.8 274.8 136.2 0 237-77.4 237-219.6 0-106.2-42.6-305.4-180.6-305.4-49.8 0-92.4 36-92.4 87.6 0 75.6 52.8 148.8 52.8 226.8 0 132.4-187.8 108.4-187.8-51.6 0-33.6 4.2-70.8 19.2-101.4-27.6-118.8-84-295.8-84-418.2 0-37.8 5.4-75 9-112.8 6.8-7.6 3.4-6.8 13.8-3 100.8 138 97.2 165 142.8 345.6 24.6-46.8 88.2-72 138.6-72 212.4 0 307.8 207 307.8 393.6 0 198.6-171.6 328.2-360 328.2z" />
<glyph unicode="&#xe922;" glyph-name="product-hunt" d="M652.6 458.4c0-41-33.4-74.4-74.4-74.4h-140.6v148.8h140.6c41 0 74.4-33.4 74.4-74.4zM1008 384c0-274-222-496-496-496s-496 222-496 496 222 496 496 496 496-222 496-496zM751.8 458.4c0 95.8-77.8 173.6-173.6 173.6h-239.8v-496h99.2v148.8h140.6c95.8 0 173.6 77.8 173.6 173.6z" />
<glyph unicode="&#xe923;" glyph-name="reddit" d="M403 285c-27.6 0-49.8 22.2-49.8 49.2 0 27.6 22.2 49.8 49.8 49.8 27.2 0 49.2-22.2 49.2-49.8 0-27.2-22.2-49.2-49.2-49.2zM1008 384c0-274-222-496-496-496s-496 222-496 496 222 496 496 496 496-222 496-496zM743.4 466.4c-18.8 0-35.4-7.8-47.6-20-44.8 31-105.2 51-172.2 53.2l34.8 156.6 110.8-25c0-27.2 22.2-49.2 49.2-49.2 27.6 0 49.8 22.6 49.8 49.8s-22.2 49.8-49.8 49.8c-19.4 0-36-11.6-44.2-27.6l-122.4 27.2c-6 1.6-12.2-2.8-13.8-8.8l-38.2-172.8c-66.4-2.8-126.2-22.6-171-53.6-12.2 12.8-29.4 20.4-48.2 20.4-69.8 0-92.6-93.8-28.8-125.6-2.2-10-3.4-20.4-3.4-31 0-105.2 118.4-190.4 264-190.4 146.2 0 264.6 85.2 264.6 190.4 0 10.6-1.2 21.6-3.8 31.6 62.6 32 39.6 125-29.8 125zM605.6 234c-36.4-36.4-152.2-35.8-187.2 0-4.4 4.4-12.2 4.4-16.6 0-5-5-5-12.8 0-17.2 45.6-45.6 174.6-45.6 220.4 0 5 4.4 5 12.2 0 17.2-4.4 4.4-12.2 4.4-16.6 0zM621 384c-27.2 0-49.2-22.2-49.2-49.8 0-27.2 22.2-49.2 49.2-49.2 27.6 0 49.8 22.2 49.8 49.2 0 27.6-22 49.8-49.8 49.8z" />
<glyph unicode="&#xe924;" glyph-name="shopify" horiz-adv-x="896" d="M776.64 687.8c-0.644 4.408-4.297 7.787-8.779 7.999l-0.021 0.001c-4 0-74.46 1.6-74.46 1.6s-43.22 41.64-59.24 57.66v-865.46l251.38 62.4s-108.080 731-108.88 735.8zM577.3 755.060c-4.39 13.737-9.276 25.391-15.032 36.522l0.612-1.302c-20.88 40.020-52.040 61.72-88.88 61.72-0.311 0.012-0.675 0.018-1.042 0.018-2.469 0-4.868-0.298-7.164-0.861l0.206 0.043c-0.8 1.6-2.4 2.4-3.2 4-16 17.54-36.8 25.54-61.64 24.8-48-1.6-96-36-134.5-97.66-27.22-43.24-48-97.68-53.64-140.12-55.24-16.8-93.66-28.82-94.46-29.62-28-8.8-28.82-9.6-32-36-2.4-20-76-583.64-76-583.64l605.16-104.96v876.66c-3.236-0.124-6.272-0.411-9.256-0.856l0.456 0.056s-11.2-3.2-29.62-8.8zM466.82 720.62c-32-9.6-67.26-20.8-101.68-31.22 9.6 37.64 28.82 75.26 51.24 100 8.8 8.8 20.82 19.22 34.42 25.62 13.62-28.74 16.82-67.98 16.020-94.4zM401.16 847.12c0.516 0.017 1.123 0.027 1.732 0.027 9.967 0 19.314-2.652 27.375-7.289l-0.267 0.142c-12.8-6.4-25.62-16.82-37.62-28.82-30.42-32.84-53.64-84-63.24-132.9-28.84-8.82-57.66-17.62-84-25.62 17.52 76.78 82.36 192.86 156.020 194.46zM308.3 406.78c3.2-51.22 138.5-62.44 146.5-183.32 5.6-95.28-50.44-160.12-131.3-164.94-97.66-6.4-151.3 51.24-151.3 51.24l20.8 88s53.64-40.84 96.88-37.64c28 1.6 38.44 24.82 37.62 40.84-4 67.24-114.48 63.24-121.68 173.72-6.4 92.88 54.44 186.54 188.94 195.36 52 3.2 78.46-9.62 78.46-9.62l-30.42-115.2s-34.42 16-75.26 12.8c-59.24-4.020-60.040-41.62-59.24-51.24zM498.84 730.24c0 24-3.2 58.44-14.42 87.26 36.84-7.2 54.44-48 62.46-72.86q-21.62-6-48.040-14.4z" />
<glyph unicode="&#xe925;" glyph-name="skype" horiz-adv-x="896" d="M849.4 296.4c5.8 28 9.4 57.8 9.4 87.6 0 227-183.8 410.6-410.6 410.6-29.8 0-59.4-3.4-87.6-9.4-38 29.4-85.2 46.8-136.6 46.8-123.6 0-224-100.4-224-224 0-51.4 17.4-98.6 46.6-136.4-5.8-28-9.4-57.8-9.4-87.6 0-227 183.8-410.6 410.6-410.6 29.8 0 59.4 3.4 87.6 9.4 38-29.2 85.2-46.6 136.4-46.6 123.6 0 224 100.4 224 224 0.2 51.2-17.2 98.4-46.4 136.2zM460.2 113.4c-131.2 0-241 58.4-241 130 0 32 18 61.2 59 61.2 62.4 0 68.2-89.8 176.2-89.8 51.4 0 84.6 22.8 84.6 52.6 0 37.4-32 43.2-84 56-125 30.8-235.6 44-235.6 174.4 0 118.4 117.2 162.2 218.2 162.2 110.2 0 221.6-43.8 221.6-110.8 0-33.8-22.8-63.6-60.6-63.6-56.6 0-58.4 67-150 67-51.4 0-84-14-84-45 0-39.6 41.6-43.6 138.2-66 82.8-18.6 181.4-53.6 181.4-155.2 0-118.2-114.2-173-224-173z" />
<glyph unicode="&#xe926;" glyph-name="slack" horiz-adv-x="896" d="M188.24 265.8c0-51.8-42.32-94.12-94.12-94.12s-94.12 42.32-94.12 94.12c0 51.8 42.32 94.12 94.12 94.12h94.12v-94.12zM235.68 265.8c0 51.8 42.32 94.12 94.12 94.12s94.12-42.32 94.12-94.12v-235.68c0-51.8-42.32-94.12-94.12-94.12s-94.12 42.32-94.12 94.12v235.68zM329.8 643.76c-51.8 0-94.12 42.32-94.12 94.12s42.32 94.12 94.12 94.12 94.12-42.32 94.12-94.12v-94.12h-94.12zM329.8 596.32c51.8 0 94.12-42.32 94.12-94.12s-42.32-94.12-94.12-94.12h-235.68c-51.8 0-94.12 42.32-94.12 94.12s42.32 94.12 94.12 94.12h235.68zM707.76 502.2c0 51.8 42.32 94.12 94.12 94.12s94.12-42.32 94.12-94.12-42.32-94.12-94.12-94.12h-94.12v94.12zM660.32 502.2c0-51.8-42.32-94.12-94.12-94.12s-94.12 42.32-94.12 94.12v235.68c0 51.8 42.32 94.12 94.12 94.12s94.12-42.32 94.12-94.12v-235.68zM566.2 124.24c51.8 0 94.12-42.32 94.12-94.12s-42.32-94.12-94.12-94.12c-51.8 0-94.12 42.32-94.12 94.12v94.12h94.12zM566.2 171.68c-51.8 0-94.12 42.32-94.12 94.12s42.32 94.12 94.12 94.12h235.68c51.8 0 94.12-42.32 94.12-94.12s-42.32-94.12-94.12-94.12h-235.68z" />
<glyph unicode="&#xe927;" glyph-name="soundcloud" horiz-adv-x="1280" d="M222.8 383.4l11.6-130-11.6-136.6c-0.6-5-4.4-8.8-8.8-8.8s-8.4 3.8-8.4 8.8l-11.2 136.6 11.2 130c0 4.4 3.8 8.4 8.4 8.4 4.4 0 8.2-4 8.8-8.4zM265.6 474.6c-5.6 0-9.4-4.4-10-10l-10-211.2 10-136.6c0.6-5.6 4.4-10 10-10 5 0 9.4 4.4 9.4 10l11.6 136.6-11.6 211.2c0 5.6-4.4 10-9.4 10zM316.6 522.8c-6.2 0-10.6-4.4-11.2-10.6l-8.8-260 8.8-135.6c0.6-6.2 5-10.6 11.2-10.6 5.6 0 10.6 4.4 10.6 10.6l10.6 135.6-10.6 260c0 6.2-5 10.6-10.6 10.6zM14.4 329.6c-2.8 0-4.4-2.2-5-5l-9.4-71.2 9.4-70c0.6-2.8 2.2-5 5-5s4.4 2.2 5 5l11.2 70-11.2 71.2c-0.6 2.8-2.2 5-5 5zM61.6 373.4c-2.8 0-5-2.2-5-5l-12.8-115 12.8-112.2c0-3.4 2.2-5.6 5-5.6s5 2.2 5.6 5l14.4 112.8-14.4 115c-0.6 2.8-2.8 5-5.6 5zM112.2 396.2c-3.4 0-6.2-2.8-6.6-6.6l-11.6-136.2 11.6-131.6c0.6-3.4 3.4-6.2 6.6-6.2 3.4 0 6.2 2.8 6.2 6.2l13.8 131.6-13.8 136.2c0 3.8-2.8 6.6-6.2 6.6zM162.8 400.6c-3.8 0-7.2-2.8-7.2-7.2l-11.6-140 11.6-135.6c0-4.4 3.4-7.2 7.2-7.2s7.2 2.8 7.8 7.2l12.8 135.6-12.8 140c-0.6 4.4-4 7.2-7.8 7.2zM645.6 622.4c-2.2 1.6-5.6 2.8-8.4 2.8-4.4 0-8.4-1.6-11.2-3.8-3.8-3.4-6.2-8.4-6.6-13.4v-1.6l-6.6-353.4 3.4-65 3.4-63.4c0.6-9.4 8.4-17.2 17.8-17.2s17.2 7.8 17.2 17.2l7.8 128.4-7.8 355c-0.8 6-4 11.6-9 14.4zM592.2 591.8c-2.8 1.6-5.6 2.8-8.8 2.8s-6.2-1.2-8.8-2.8c-4.4-2.8-7.2-7.8-7.2-13.4l-0.6-3.4-5.6-321.6s0-0.6 6.2-131.2v-0.6c0-3.4 1.2-6.6 3.4-9.4 3.4-3.8 7.8-6.2 12.8-6.2 4.4 0 8.4 2.2 11.2 5 3.4 2.8 5 6.6 5 11.2l0.6 13.4 6.2 117.2-6.6 325.6c-0.6 5.6-3.4 10.6-7.8 13.4zM369.4 546.8c-6.2 0-11.6-5.6-11.6-12.2l-8.8-281.2 8.8-134.4c0.6-6.6 5.6-11.6 11.6-11.6 6.6 0 11.6 5 12.2 11.6l10 134.4-10 281.2c-0.4 6.6-5.4 12.2-12.2 12.2zM1122.8 421.2c-21.6 0-42.2-4.4-61.2-12.2-12.8 141.6-131.6 252.8-276.6 252.8-35.6 0-70-6.6-100.6-18.8-12.2-4.4-15.6-8.8-15.6-18.4v-499.4c0-10 7.8-17.2 17.2-18.4h436.6c86.6 0 157.2 70 157.2 156.6 0.2 87.2-70.4 157.8-157 157.8zM529.4 541.8c-8.4 0-15-6.6-15.6-15.6l-6.6-273.4 6.6-131.2c0.6-8.4 7.2-15 15.6-15s15 6.6 15 15l7.8 131.2-7.8 273.4c-0.6 9-6.6 15.6-15 15.6zM422.2 557.4c-6.6 0-12.8-6.2-12.8-13.4l-7.8-290.6 7.8-133.8c0.6-7.2 6.2-12.8 12.8-12.8 7.2 0 12.8 5.6 13.4 12.8l8.8 133.8-8.8 290.6c-0.6 7.2-6.2 13.4-13.4 13.4zM475.6 550.6c-7.8 0-13.8-6.2-13.8-13.8l-7.8-283.4 7.8-132.8c0.6-7.8 6.2-13.8 13.8-13.8s13.8 6.2 13.8 13.8l8.4 132.8-8.4 283.4c0 7.8-6 13.8-13.8 13.8z" />
<glyph unicode="&#xe928;" glyph-name="spotify" horiz-adv-x="992" d="M496 880c-273.8 0-496-222.2-496-496s222.2-496 496-496 496 222.2 496 496-222.2 496-496 496zM697.4 150.2c-8.4 0-13.6 2.6-21.4 7.2-124.8 75.2-270 78.4-413.4 49-7.8-2-18-5.2-23.8-5.2-19.4 0-31.6 15.4-31.6 31.6 0 20.6 12.2 30.4 27.2 33.6 163.8 36.2 331.2 33 474-52.4 12.2-7.8 19.4-14.8 19.4-33s-14.2-30.8-30.4-30.8zM751.2 281.4c-10.4 0-17.4 4.6-24.6 8.4-125 74-311.4 103.8-477.2 58.8-9.6-2.6-14.8-5.2-23.8-5.2-21.4 0-38.8 17.4-38.8 38.8s10.4 35.6 31 41.4c55.6 15.6 112.4 27.2 195.6 27.2 129.8 0 255.2-32.2 354-91 16.2-9.6 22.6-22 22.6-39.4-0.2-21.6-17-39-38.8-39zM813.2 433.8c-10.4 0-16.8 2.6-25.8 7.8-142.4 85-397 105.4-561.8 59.4-7.2-2-16.2-5.2-25.8-5.2-26.4 0-46.6 20.6-46.6 47.2 0 27.2 16.8 42.6 34.8 47.8 70.4 20.6 149.2 30.4 235 30.4 146 0 299-30.4 410.8-95.6 15.6-9 25.8-21.4 25.8-45.2 0-27.2-22-46.6-46.4-46.6z" />
<glyph unicode="&#xe929;" glyph-name="stack-overflow" horiz-adv-x="768" d="M581.4 274l-391.4 82.6-16.4-78.6 391.4-82zM683.4 448l-307 256.6-51-61.6 307-256.6zM621 368.6l-362.6 169.4-33.4-73 362.4-169zM524 832l-64-48 238.6-320.6 64 48zM565 176h-400v-79.4h400zM644.4 16h-559v240h-80v-320h719v320h-80z" />
<glyph unicode="&#xe92a;" glyph-name="steam" horiz-adv-x="992" d="M992 384c0-274-222.4-496-496.8-496-227.6 0-419.2 152.6-478 360.8l190.4-78.6c12.8-64.2 69.8-112.8 137.8-112.8 78.4 0 143.8 64.8 140.4 147l169 120.4c104.2-2.6 191.6 81.8 191.6 187 0 103.2-84 187-187.4 187s-187.4-84-187.4-187v-2.4l-118.4-171.4c-31 1.8-61.4-6.8-87-24.2l-266.2 110c20.4 255.4 234.2 456.2 495.2 456.2 274.4 0 496.8-222 496.8-496zM311.4 127.4l-61 25.2c11.393-23.29 30.397-41.387 53.711-51.338l0.689-0.262c53.8-22.4 115.6 3.2 138 56.8 10.8 26 11 54.6 0.2 80.6s-31 46.4-57 57.2c-25.8 10.8-53.4 10.4-77.8 1.2l63-26c39.6-16.4 58.4-61.8 41.8-101.4-16.6-39.8-62-58.4-101.6-42zM659 387.2c-68.8 0-124.8 56-124.8 124.6s56 124.6 124.8 124.6 124.8-56 124.8-124.6-55.8-124.6-124.8-124.6zM659.2 418.4c51.8 0 93.8 42 93.8 93.6 0 51.8-42 93.6-93.8 93.6s-93.8-42-93.8-93.6c0.2-51.6 42.2-93.6 93.8-93.6z" />
<glyph unicode="&#xe92b;" glyph-name="stripe" horiz-adv-x="1280" d="M330 606.6l-86.6-18.4-0.4-284.8c0-52.6 39.6-86.6 92.2-86.6 29.2 0 50.6 5.4 62.4 11.8v67.6c-11.4-4.6-67.4-21-67.4 31.4v126.4h67.4v75.6h-67.4zM508.2 503.4l-5.4 26.2h-76.8v-306.4h88.6v206.2c21 27.6 56.4 22.2 67.8 18.6v81.6c-12 4.2-53.4 12-74.2-26.2zM692.8 648l-89.2-19v-72.4l89.2 19zM89.8 439.4c0 13.8 11.6 19.2 30.2 19.4 27 0 61.4-8.2 88.4-22.8v83.6c-29.4 11.6-58.8 16.2-88.2 16.2-72 0-120-37.6-120-100.4 0-98.4 135-82.4 135-124.8 0-16.4-14.2-21.8-34-21.8-29.4 0-67.4 12.2-97.2 28.4v-80c33-14.2 66.4-20.2 97-20.2 73.8 0 124.6 31.6 124.6 95.6 0 105.8-135.8 86.8-135.8 126.8zM1280 372.8c0 91-44 162.8-128.4 162.8s-135.8-71.8-135.8-162.2c0-107 60.6-156.4 147-156.4 42.4 0 74.2 9.6 98.4 23v66.8c-24.2-12.2-52-19.6-87.2-19.6-34.6 0-65 12.2-69 53.8h173.8c0.4 4.6 1.2 23.2 1.2 31.8zM1104.2 406.4c0 40 24.6 56.8 46.8 56.8 21.8 0 45-16.8 45-56.8zM878.4 535.6c-34.8 0-57.2-16.4-69.6-27.8l-4.6 22h-78.2v-409.6l88.8 18.8 0.2 100.4c12.8-9.4 31.8-22.4 62.8-22.4 63.6 0 121.6 46.4 121.6 159.2 0.2 103.2-58.6 159.4-121 159.4zM857.2 290.6c-20.8 0-33.2 7.6-41.8 16.8l-0.6 132c9.2 10.2 22 17.6 42.4 17.6 32.4 0 54.8-36.4 54.8-82.8 0.2-47.8-21.8-83.6-54.8-83.6zM603.8 223.2h89.2v306.4h-89.2z" />
<glyph unicode="&#xe92c;" glyph-name="tiktok" horiz-adv-x="896" d="M896 476.18c-0.299-0.001-0.652-0.001-1.005-0.001-91.768 0-176.664 29.423-245.768 79.349l1.233-0.848v-357.44c-0.068-179.496-145.594-324.981-325.1-324.981-179.548 0-325.1 145.552-325.1 325.1s145.552 325.1 325.1 325.1c15.745 0 31.228-1.119 46.375-3.283l-1.735 0.203v-179.78c-13.386 4.362-28.789 6.877-44.78 6.877-82.423 0-149.24-66.817-149.24-149.24s66.817-149.24 149.24-149.24c82.423 0 149.24 66.817 149.24 149.24 0 0.001 0 0.002 0 0.004v0 698.76h176c-0.005-0.592-0.008-1.292-0.008-1.993 0-14.966 1.356-29.615 3.953-43.83l-0.225 1.484c12.99-67.689 52.414-124.345 106.88-159.865l0.94-0.575c37.691-25.239 84.063-40.28 133.949-40.28 0.018 0 0.036 0 0.054 0h-0.003z" />
<glyph unicode="&#xe92d;" glyph-name="tumblr" horiz-adv-x="640" d="M619.6-64.6c-27.2-29-100-63.4-194.8-63.4-241.6 0-294 177.6-294 281.2v288h-95c-11 0-20 9-20 20v136c0 14.4 9 27.2 22.6 32 124 43.6 163 152 168.6 234.2 1.6 22 13 32.6 32.2 32.6h141.8c11 0 20-9 20-20v-230.4h166c11 0 20-8.8 20-19.8v-163.4c0-11-9-20-20-20h-166.8v-266.4c0-68.4 47.4-107.2 136-71.6 9.6 3.8 18 6.4 25.4 4.4 7-1.8 11.6-6.8 14.8-15.8l44-128.6c3.6-10 6.6-21.2-0.8-29z" />
<glyph unicode="&#xe92e;" glyph-name="twitch" d="M782.34 689.060h-77.26v-219.4h77.26zM570 690h-77.26v-219.5h77.26zM241.66 896l-193.040-182.84v-658.32h231.66v-182.84l193.060 182.84h154.5l347.54 329.16v512zM898.14 420.5l-154.44-146.24h-154.48l-135.2-128v128h-173.74v548.58h617.86z" />
<glyph unicode="&#xe92f;" glyph-name="twitter" d="M918.74 592.568c0.65-9.096 0.65-18.194 0.65-27.29 0-277.44-211.166-597.116-597.116-597.116-118.904 0-229.36 34.438-322.274 94.212 16.894-1.948 33.136-2.598 50.68-2.598 98.11 0 188.426 33.136 260.548 89.664-92.264 1.95-169.584 62.376-196.224 145.544 12.996-1.948 25.99-3.248 39.636-3.248 18.842 0 37.686 2.6 55.228 7.146-96.162 19.494-168.286 103.96-168.286 205.97v2.598c27.938-15.594 60.428-25.34 94.862-26.638-56.528 37.686-93.562 102.010-93.562 174.782 0 38.984 10.394 74.72 28.588 105.908 103.31-127.35 258.6-210.516 432.73-219.614-3.248 15.594-5.198 31.836-5.198 48.080 0 115.656 93.564 209.868 209.868 209.868 60.426 0 115.004-25.34 153.34-66.274 47.43 9.096 92.912 26.64 133.198 50.68-15.596-48.732-48.732-89.666-92.264-115.654 42.234 4.546 83.168 16.244 120.852 32.486-28.584-41.582-64.322-78.616-105.256-108.506z" />
<glyph unicode="&#xe930;" glyph-name="viber" d="M888 796.2c-25.4 23.4-128.2 98-357.4 99 0 0-270.2 16.2-401.8-104.6-73.2-73.2-99-180.6-101.8-313.6s-6.2-382.2 234-449.8h0.2l-0.2-103.2s-1.6-41.8 26-50.2c33.2-10.4 52.8 21.4 84.6 55.6 17.4 18.8 41.4 46.4 59.6 67.4 164.4-13.8 290.6 17.8 305 22.4 33.2 10.8 221 34.8 251.4 284 31.6 257.2-15.2 419.6-99.6 493zM915.8 322c-25.8-208-178-221.2-206-230.2-12-3.8-123-31.4-262.4-22.4 0 0-104-125.4-136.4-158-10.6-10.6-22.2-9.6-22 11.4 0 13.8 0.8 171.4 0.8 171.4-0.2 0-0.2 0 0 0-203.6 56.4-191.6 268.6-189.4 379.6s23.2 202 85.2 263.2c111.4 101 340.8 86 340.8 86 193.8-0.8 286.6-59.2 308.2-78.8 71.4-61.2 107.8-207.6 81.2-422.2zM637.8 483.6c0.8-17.2-25-18.4-25.8-1.2-2.2 44-22.8 65.4-65.2 67.8-17.2 1-15.6 26.8 1.4 25.8 55.8-3 86.8-35 89.6-92.4zM678.4 461c2 84.8-51 151.2-151.6 158.6-17 1.2-15.2 27 1.8 25.8 116-8.4 177.8-88.2 175.6-185-0.2-17.2-26.2-16.4-25.8 0.6zM772.4 434.2c0.2-17.2-25.8-17.4-25.8-0.2-1.2 163-109.8 251.8-241.6 252.8-17 0.2-17 25.8 0 25.8 147.4-1 266-102.8 267.4-278.4zM749.8 238v-0.4c-21.6-38-62-80-103.6-66.6l-0.4 0.6c-42.2 11.8-141.6 63-204.4 113-32.4 25.6-62 55.8-84.8 84.8-20.6 25.8-41.4 56.4-61.6 93.2-42.6 77-52 111.4-52 111.4-13.4 41.6 28.4 82 66.6 103.6h0.4c18.4 9.6 36 6.4 47.8-7.8 0 0 24.8-29.6 35.4-44.2 10-13.6 23.4-35.4 30.4-47.6 12.2-21.8 4.6-44-7.4-53.2l-24-19.2c-12.2-9.8-10.6-28-10.6-28s35.6-134.6 168.6-168.6c0 0 18.2-1.6 28 10.6l19.2 24c9.2 12 31.4 19.6 53.2 7.4 29.4-16.6 66.8-42.4 91.6-65.8 14-11.4 17.2-28.8 7.6-47.2z" />
<glyph unicode="&#xe931;" glyph-name="vimeo" horiz-adv-x="896" d="M806.4 832h-716.8c-49.4 0-89.6-40.2-89.6-89.6v-716.8c0-49.4 40.2-89.6 89.6-89.6h716.8c49.4 0 89.6 40.2 89.6 89.6v716.8c0 49.4-40.2 89.6-89.6 89.6zM754 534.4c-2.8-63-46.8-149.4-132-258.8-88-114.4-162.6-171.6-223.4-171.6-37.8 0-69.6 34.8-95.8 104.6-51 186.6-72.8 296-114.8 296-4.8 0-21.8-10.2-50.8-30.4l-30.4 39.2c74.6 65.6 145.8 138.4 190.4 142.4 50.4 4.8 81.4-29.6 93-103.4 41.4-262.4 59.8-302 135.2-183.2 27 42.8 41.6 75.4 43.6 97.8 7 66.4-51.8 61.8-91.6 44.8 31.8 104.2 92.6 154.8 182.4 152 66.6-1.8 98-45 94.2-129.4z" />
<glyph unicode="&#xe932;" glyph-name="vimeo-v" horiz-adv-x="896" d="M895.6 588.8c-4-87.2-64.8-206.6-182.8-358.2-121.8-158.4-224.8-237.6-309.2-237.6-52.2 0-96.4 48.2-132.6 144.6-70.4 258.4-100.4 409.8-158.6 409.8-6.8 0-30.2-14.2-70.4-42.2l-42 54.4c103.2 90.6 201.8 191.4 263.6 197 69.8 6.8 112.6-41 128.8-143 57.4-363 82.8-417.8 187.2-253.4 37.4 59.2 57.6 104.2 60.4 135.2 9.6 91.8-71.6 85.6-126.6 62 44 144.2 128.2 214.2 252.4 210.2 91.6-2.4 135-62.2 129.8-178.8z" />
<glyph unicode="&#xe933;" glyph-name="whatsapp" horiz-adv-x="896" d="M761.8 701.8c-83.8 84-195.4 130.2-314 130.2-244.8 0-444-199.2-444-444 0-78.2 20.4-154.6 59.2-222l-63-230 235.4 61.8c64.8-35.4 137.8-54 212.2-54h0.2c244.6 0 448.2 199.2 448.2 444 0 118.6-50.4 230-134.2 314zM447.8 18.6c-66.4 0-131.4 17.8-188 51.4l-13.4 8-139.6-36.6 37.2 136.2-8.8 14c-37 58.8-56.4 126.6-56.4 196.4 0 203.4 165.6 369 369.2 369 98.6 0 191.2-38.4 260.8-108.2s112.4-162.4 112.2-261c0-203.6-169.8-369.2-373.2-369.2zM650.2 295c-11 5.6-65.6 32.4-75.8 36-10.2 3.8-17.6 5.6-25-5.6s-28.6-36-35.2-43.6c-6.4-7.4-13-8.4-24-2.8-65.2 32.6-108 58.2-151 132-11.4 19.6 11.4 18.2 32.6 60.6 3.6 7.4 1.8 13.8-1 19.4s-25 60.2-34.2 82.4c-9 21.6-18.2 18.6-25 19-6.4 0.4-13.8 0.4-21.2 0.4s-19.4-2.8-29.6-13.8c-10.2-11.2-38.8-38-38.8-92.6s39.8-107.4 45.2-114.8c5.6-7.4 78.2-119.4 189.6-167.6 70.4-30.4 98-33 133.2-27.8 21.4 3.2 65.6 26.8 74.8 52.8s9.2 48.2 6.4 52.8c-2.6 5-10 7.8-21 13.2z" />
<glyph unicode="&#xe934;" glyph-name="yelp" horiz-adv-x="768" d="M85.8 415.36l199.24-97.22c38.4-18.8 32.4-75.020-9-85.42l-215.040-53.62c-3.337-0.874-7.168-1.376-11.116-1.376-23.41 0-42.698 17.649-45.285 40.367l-0.019 0.209c-1.636 13.49-2.57 29.109-2.57 44.946 0 44.978 7.531 88.198 21.4 128.467l-0.83-2.772c6.264 18.2 23.239 31.043 43.214 31.043 7.282 0 14.165-1.707 20.271-4.742l-0.265 0.119zM173.8-63.14c45.080-31.256 98.628-53.792 156.454-63.876l2.386-0.344c2.317-0.418 4.984-0.656 7.706-0.656 24.619 0 44.678 19.527 45.532 43.938l0.002 0.078 7.8 221.64c1.4 42.6-51 63.82-79.62 32.2l-148.42-164.8c-7.256-8.048-11.695-18.76-11.695-30.508 0-15.58 7.807-29.337 19.723-37.572l0.152-0.1zM464.48 156.7l117.62-188c8.248-12.98 22.55-21.468 38.835-21.468 11.113 0 21.303 3.953 29.241 10.53l-0.076-0.061c43.991 36.547 79.538 81.627 104.387 132.859l1.033 2.361c2.718 5.695 4.305 12.377 4.305 19.43 0 20.213-13.037 37.381-31.161 43.554l-0.324 0.096-210.84 68.52c-40.62 13-75.62-31.6-53.020-67.82zM761.14 421.16c-24.136 54.69-58.248 100.914-100.406 138.26l-0.414 0.36c-7.998 7.037-18.559 11.332-30.122 11.332-15.699 0-29.549-7.916-37.777-19.974l-0.102-0.158-124-183.84c-23.8-35.4 9.4-81.22 50.4-69.42l213.28 61.020c19.24 5.794 33.013 23.353 33.013 44.129 0 6.614-1.396 12.902-3.909 18.585l0.116-0.294zM124.22 835.64c-15.445-7.558-25.892-23.157-25.892-41.197 0-8.394 2.262-16.259 6.21-23.020l-0.117 0.217 208.24-360.88c23.4-40.4 85.22-23.8 85.22 22.8v416.68c0.001 0.121 0.002 0.265 0.002 0.408 0 25.041-20.299 45.34-45.34 45.34-1.289 0-2.565-0.054-3.827-0.159l0.165 0.011c-82.826-6.752-159.138-28.244-228.474-61.868l3.814 1.668z" />
<glyph unicode="&#xe935;" glyph-name="youtube" horiz-adv-x="1152" d="M1099.31 647.834c-12.562 47.3-49.574 84.552-96.568 97.194-85.18 22.972-426.742 22.972-426.742 22.972s-341.56 0-426.742-22.972c-46.994-12.644-84.006-49.894-96.568-97.194-22.824-85.734-22.824-264.61-22.824-264.61s0-178.876 22.824-264.61c12.562-47.3 49.574-83 96.568-95.642 85.182-22.972 426.742-22.972 426.742-22.972s341.56 0 426.742 22.972c46.994 12.642 84.006 48.342 96.568 95.642 22.824 85.734 22.824 264.61 22.824 264.61s0 178.876-22.824 264.61zM464.29 220.818v324.812l285.478-162.41-285.478-162.402z" />
</font>
</defs>
</svg>
